Beyoncé (feat. Jay-Z) - Deja Vu (MTV BASE HD-1080i-DD2.0-Olgold)

Discussion in 'MTV BASE' started by DETOX, Mar 11, 2015.

  1. DETOX

    DETOX Well-Known Member V . I . P. Uploader

    Joined:
    Feb 20, 2014
    Messages:
    2,766
    Likes Received:
    14,237

    Beyoncé (feat. Jay-Z) - Deja Vu (MTV BASE HD-1080i-DD2.0-Olgold)
    [​IMG]
    General
    ID : 16 (0x10)
    Complete name : Beyoncé (feat. Jay-Z) - Deja Vu (MTV BASE HD-1080i-DD2.0-Olgold).ts
    Format : MPEG-TS
    File size : 232 MiB
    Duration : 4mn 1s
    Overall bit rate mode : Variable
    Overall bit rate : 8 067 Kbps

    Video
    ID : 110 (0x6E)
    Menu ID : 8001 (0x1F41)
    Format : AVC
    Format/Info : Advanced Video Codec
    Format profile : [email protected]
    Format settings, CABAC : Yes
    Format settings, ReFrames : 4 frames
    Codec ID : 27
    Duration : 4mn 1s
    Bit rate : 7 410 Kbps
    Width : 1 920 pixels
    Height : 1 080 pixels
    Display aspect ratio : 16:9
    Frame rate : 25.000 fps
    Standard : Component
    Color space : YUV
    Chroma subsampling : 4:2:0
    Bit depth : 8 bits
    Scan type : MBAFF
    Scan order : Top Field First
    Bits/(Pixel*Frame) : 0.143
    Stream size : 213 MiB (92%)
    Color primaries : BT.709
    Transfer characteristics : BT.709
    Matrix coefficients : BT.709
    Color range : Limited

    Audio
    ID : 121 (0x79)
    Menu ID : 8001 (0x1F41)
    Format : AC-3
    Format/Info : Audio Coding 3
    Mode extension : CM (complete main)
    Format settings, Endianness : Big
    Codec ID : 6
    Duration : 4mn 1s
    Bit rate mode : Constant
    Bit rate : 256 Kbps
    Channel(s) : 2 channels
    Channel positions : Front: L R
    Sampling rate : 48.0 KHz
    Bit depth : 16 bits
    Compression mode : Lossy
    Delay relative to video : 60ms
    Stream size : 7.36 MiB (3%)
    Language : English
    Language, more info : Clean effects

    Credits to Olgold

    SERVER: MEGA / PASSWORD: DETOX
    Hidden Content:
    You must reply before you can see the hidden data contained here.
     
  2. Loading...


  3. rhea

    rhea Well-Known Member

    Joined:
    Jan 6, 2014
    Messages:
    5,300
    Likes Received:
    253
    thank you so much!
     
  4. Alexander

    Alexander Member

    Joined:
    Apr 7, 2014
    Messages:
    76
    Likes Received:
    6
     
  5. d4rk0n3

    d4rk0n3 Member

    Joined:
    Nov 5, 2013
    Messages:
    404
    Likes Received:
    7
    thank you!
     
  6. 江雨燃双鱼

    江雨燃双鱼 Active Member

    Joined:
    Apr 5, 2014
    Messages:
    585
    Likes Received:
    34
  7. gh-sean

    gh-sean Member

    Joined:
    Mar 26, 2014
    Messages:
    159
    Likes Received:
    4
    thank you so much
     
  8. mike gunen

    mike gunen Member

    Joined:
    Nov 9, 2013
    Messages:
    679
    Likes Received:
    13
    thank you!
     
  9. Chris

    Chris Member

    Joined:
    Oct 19, 2013
    Messages:
    514
    Likes Received:
    15
    Thank you
     
  10. Albano Salinas

    Albano Salinas Well-Known Member

    Joined:
    Nov 6, 2014
    Messages:
    445
    Likes Received:
    787
    thanks DETOX!.-
     
  11. Vinny

    Vinny Active Member

    Joined:
    Dec 26, 2013
    Messages:
    1,771
    Likes Received:
    7
    Thank U!
     
  12. furkan

    furkan Member

    Joined:
    Oct 9, 2015
    Messages:
    194
    Likes Received:
    3
    thnks youuuuu
     
  13. yhkim

    yhkim Active Member

    Joined:
    Nov 19, 2013
    Messages:
    671
    Likes Received:
    6
    thank you so much
     
  14. yonita

    yonita Member

    Joined:
    Mar 7, 2016
    Messages:
    354
    Likes Received:
    10
    gracias
     
  15. maurohachen

    maurohachen Member

    Joined:
    Feb 24, 2015
    Messages:
    390
    Likes Received:
    14
    TODO EN ORDEN SUBAN SERIES EN LATINO
     
  16. abdi

    abdi Well-Known Member Uploader

    Joined:
    Sep 23, 2014
    Messages:
    1,755
    Likes Received:
    3,089
    thank you
     
  17. ramazanedvard

    ramazanedvard New Member

    Joined:
    Jan 14, 2016
    Messages:
    21
    Likes Received:
    0
  18. honiamam

    honiamam Member

    Joined:
    Apr 1, 2016
    Messages:
    158
    Likes Received:
    12
    thank you very much
     
  19. mayoaries

    mayoaries New Member

    Joined:
    Dec 8, 2015
    Messages:
    11
    Likes Received:
    0
    thank you thank you!
     
  20. girishbabuj3

    girishbabuj3 Member

    Joined:
    Aug 5, 2016
    Messages:
    30
    Likes Received:
    0
  21. viniciusx

    viniciusx Member

    Joined:
    Sep 26, 2016
    Messages:
    59
    Likes Received:
    69
    Thank you!