Beyoncé feat Jay Z - Déjà Vu 1080p

Discussion in 'Music Videos' started by hanshermann, Jan 8, 2018.

  1. hanshermann

    hanshermann Well-Known Member Uploader

    Joined:
    Aug 24, 2016
    Messages:
    5,240
    Likes Received:
    4,888
    [​IMG]

    Beyoncé feat Jay Z - Déjà Vu 1080p

    Code:
    General
    Complete name               : Beyoncé feat Jay Z   Déjà vu.avi
    Format                      : AVI
    Format/Info                 : Audio Video Interleave
    File size                   : 367 MiB
    Duration                    : 4 min 2 s
    Overall bit rate            : 12.7 Mb/s
    Writing application         : Lavf57.66.104
    
    Video
    ID                          : 0
    Format                      : MPEG-4 Visual
    Format profile              : [email protected]
    Format settings, BVOP       : No
    Format settings, QPel       : No
    Format settings, GMC        : No warppoints
    Format settings, Matrix     : Default (H.263)
    Codec ID                    : XVID
    Codec ID/Hint               : XviD
    Duration                    : 4 min 2 s
    Bit rate                    : 12.6 Mb/s
    Width                       : 1 920 pixels
    Height                      : 1 080 pixels
    Display aspect ratio        : 16:9
    Frame rate                  : 25.000 FPS
    Color space                 : YUV
    Chroma subsampling          : 4:2:0
    Bit depth                   : 8 bits
    Scan type                   : Progressive
    Compression mode            : Lossy
    Bits/(Pixel*Frame)          : 0.243
    Stream size                 : 363 MiB (99%)
    Writing library             : Lavc57.83.100
    
    Audio
    ID                          : 1
    Format                      : MPEG Audio
    Format version              : Version 1
    Format profile              : Layer 3
    Mode                        : Joint stereo
    Mode extension              : MS Stereo
    Codec ID                    : 55
    Codec ID/Hint               : MP3
    Duration                    : 4 min 2 s
    Bit rate mode               : Constant
    Bit rate                    : 128 kb/s
    Channel(s)                  : 2 channels
    Sampling rate               : 44.1 kHz
    Compression mode            : Lossy
    Stream size                 : 3.69 MiB (1%)
    Alignment                   : Aligned on interleaves
    Interleave, duration        : 26  ms (0.65 video frame)
    Interleave, preload duratio : 78  ms
    Writing library             : LAME3.99.5
    Hidden Content:
    You must either reply or click 'Like' to see the hidden information contained here.
     
    Last edited: Jan 8, 2018
    toonbbv, edsonavril33 and deekharden like this.
  2. Loading...


  3. Albert90

    Albert90 Member

    Joined:
    May 27, 2017
    Messages:
    188
    Likes Received:
    12
    thanks
     
  4. andreamonger

    andreamonger Well-Known Member

    Joined:
    May 16, 2015
    Messages:
    1,157
    Likes Received:
    179
    tanks
     
  5. Marcos Sannin

    Marcos Sannin Well-Known Member

    Joined:
    Dec 11, 2014
    Messages:
    479
    Likes Received:
    575
    thank you
     
  6. Marcos Sannin

    Marcos Sannin Well-Known Member

    Joined:
    Dec 11, 2014
    Messages:
    479
    Likes Received:
    575
    thank you
     
  7. marcovieirabh

    marcovieirabh Member

    Joined:
    May 22, 2017
    Messages:
    723
    Likes Received:
    23
    thanks
     
  8. masterofcum69

    masterofcum69 New Member

    Joined:
    Oct 2, 2017
    Messages:
    24
    Likes Received:
    0
  9. Nicolas Martins

    Nicolas Martins st jude

    Joined:
    Sep 22, 2014
    Messages:
    994
    Likes Received:
    111
  10. Tommyboy

    Tommyboy Active Member

    Joined:
    Oct 23, 2016
    Messages:
    782
    Likes Received:
    29
    G.Tanks
     
  11. princebasil

    princebasil Member

    Joined:
    Jul 4, 2017
    Messages:
    338
    Likes Received:
    19
    Thank you!
     
  12. toonbbv

    toonbbv Well-Known Member

    Joined:
    Dec 11, 2013
    Messages:
    1,691
    Likes Received:
    81
    thank you
     
  13. silentnight247

    silentnight247 Member

    Joined:
    Jun 2, 2016
    Messages:
    129
    Likes Received:
    5
    thanks