Beyoncé feat Jay Z - Déjà Vu 1080p

Discussion in 'Music Videos' started by hanshermann, Jan 8, 2018.

  1. hanshermann

    hanshermann Well-Known Member Uploader

    Joined:
    Aug 24, 2016
    Messages:
    6,456
    Likes Received:
    9,867
    [​IMG]

    Beyoncé feat Jay Z - Déjà Vu 1080p

    Code:
    General
    Complete name               : Beyoncé feat Jay Z   Déjà vu.avi
    Format                      : AVI
    Format/Info                 : Audio Video Interleave
    File size                   : 367 MiB
    Duration                    : 4 min 2 s
    Overall bit rate            : 12.7 Mb/s
    Writing application         : Lavf57.66.104
    
    Video
    ID                          : 0
    Format                      : MPEG-4 Visual
    Format profile              : Simple@L1
    Format settings, BVOP       : No
    Format settings, QPel       : No
    Format settings, GMC        : No warppoints
    Format settings, Matrix     : Default (H.263)
    Codec ID                    : XVID
    Codec ID/Hint               : XviD
    Duration                    : 4 min 2 s
    Bit rate                    : 12.6 Mb/s
    Width                       : 1 920 pixels
    Height                      : 1 080 pixels
    Display aspect ratio        : 16:9
    Frame rate                  : 25.000 FPS
    Color space                 : YUV
    Chroma subsampling          : 4:2:0
    Bit depth                   : 8 bits
    Scan type                   : Progressive
    Compression mode            : Lossy
    Bits/(Pixel*Frame)          : 0.243
    Stream size                 : 363 MiB (99%)
    Writing library             : Lavc57.83.100
    
    Audio
    ID                          : 1
    Format                      : MPEG Audio
    Format version              : Version 1
    Format profile              : Layer 3
    Mode                        : Joint stereo
    Mode extension              : MS Stereo
    Codec ID                    : 55
    Codec ID/Hint               : MP3
    Duration                    : 4 min 2 s
    Bit rate mode               : Constant
    Bit rate                    : 128 kb/s
    Channel(s)                  : 2 channels
    Sampling rate               : 44.1 kHz
    Compression mode            : Lossy
    Stream size                 : 3.69 MiB (1%)
    Alignment                   : Aligned on interleaves
    Interleave, duration        : 26  ms (0.65 video frame)
    Interleave, preload duratio : 78  ms
    Writing library             : LAME3.99.5
    Hidden Content:
    You must either reply or click 'Like' to see the hidden information contained here.
     
    Last edited: Apr 13, 2018
    Lufero, Mina345, calebj and 26 others like this.
  2. Loading...


  3. Albert90

    Albert90 Active Member

    Joined:
    May 27, 2017
    Messages:
    609
    Likes Received:
    46
    thanks
     
  4. andreamonger

    andreamonger Well-Known Member

    Joined:
    May 16, 2015
    Messages:
    1,368
    Likes Received:
    216
    tanks
     
  5. Marcos Sannin

    Marcos Sannin Well-Known Member

    Joined:
    Dec 11, 2014
    Messages:
    770
    Likes Received:
    755
    thank you
     
  6. Marcos Sannin

    Marcos Sannin Well-Known Member

    Joined:
    Dec 11, 2014
    Messages:
    770
    Likes Received:
    755
    thank you
     
  7. marcovieirabh

    marcovieirabh Active Member

    Joined:
    May 22, 2017
    Messages:
    779
    Likes Received:
    32
    thanks
     
  8. masterofcum69

    masterofcum69 Member

    Joined:
    Oct 2, 2017
    Messages:
    54
    Likes Received:
    0
  9. Nicolas Martins

    Nicolas Martins Saint

    Joined:
    Sep 22, 2014
    Messages:
    1,147
    Likes Received:
    127
  10. Tommyboy

    Tommyboy Active Member

    Joined:
    Oct 23, 2016
    Messages:
    905
    Likes Received:
    35
    G.Tanks
     
  11. princebasil

    princebasil Active Member

    Joined:
    Jul 4, 2017
    Messages:
    512
    Likes Received:
    33
    Thank you!
     
  12. toonbbv

    toonbbv Well-Known Member

    Joined:
    Dec 11, 2013
    Messages:
    2,188
    Likes Received:
    103
    thank you
     
  13. silentnight247

    silentnight247 Member

    Joined:
    Jun 2, 2016
    Messages:
    162
    Likes Received:
    5
    thanks
     
  14. Clepsodra

    Clepsodra Active Member

    Joined:
    Jan 15, 2017
    Messages:
    543
    Likes Received:
    111
    [​IMG]
    hanshermannWell-Known MemberUploader
    Joined:
    Aug 24, 2016
    Messages:
    5,240
    Likes Received:
    4,893
    [​IMG]

    Beyoncé feat Jay Z - Déjà Vu 1080p

    Code:
    General
    Complete name : Beyoncé feat Jay Z Déjà vu.avi
    Format : AVI
    Format/Info : Audio Video Interleave
    File size : 367 MiB
    Duration : 4 min 2 s
    Overall bit rate : 12.7 Mb/s
    Writing application : Lavf57.66.104

    Video
    ID : 0
    Format : MPEG-4 Visual
    Format profile : Simple@L1
    Format settings, BVOP : No
    Format settings, QPel : No
    Format settings, GMC : No warppoints
    Format settings, Matrix : Default (H.263)
    Codec ID : XVID
    Codec ID/Hint : XviD
    Duration : 4 min 2 s
    Bit rate : 12.6 Mb/s
    Width : 1 920 pixels
    Height : 1 080 pixels
    Display aspect ratio : 16:9
    Frame rate : 25.000 FPS
    Color space : YUV
    Chroma subsampling : 4:2:0
    Bit depth : 8 bits
    Scan type : Progressive
    Compression mode : Lossy
    Bits/(Pixel*Frame) : 0.243
    Stream size : 363 MiB (99%)
    Writing library : Lavc57.83.100

    Audio
    ID : 1
    Format : MPEG Audio
    Format version : Version 1
    Format profile : Layer 3
    Mode : Joint stereo
    Mode extension : MS Stereo
    Codec ID : 55
    Codec ID/Hint : MP3
    Duration : 4 min 2 s
    Bit rate mode : Constant
    Bit rate : 128 kb/s
    Channel(s) : 2 channels
    Sampling rate : 44.1 kHz
    Compression mode : Lossy
    Stream size : 3.69 MiB (1%)
    Alignment : Aligned on interleaves
    Interleave, duration : 26 ms (0.65 video frame)
    Interleave, preload duratio : 78 ms
    Writing library : LAME3.99.5
    Hidden Content:
    You must either reply or click 'Like' to see the hidden information contained here.
     
  15. revallsayREV

    revallsayREV Member

    Joined:
    Oct 28, 2017
    Messages:
    130
    Likes Received:
    1
  16. blaze223

    blaze223 Member

    Joined:
    May 19, 2015
    Messages:
    161
    Likes Received:
    7
  17. D3mon86

    D3mon86 Member

    Joined:
    Dec 19, 2016
    Messages:
    850
    Likes Received:
    14
    thanks
     
  18. mizdot

    mizdot Well-Known Member

    Joined:
    Nov 13, 2014
    Messages:
    2,677
    Likes Received:
    115
    tnx man
     
  19. allynat

    allynat Member

    Joined:
    Dec 25, 2017
    Messages:
    664
    Likes Received:
    11
    THANK YOU
     
  20. khan

    khan Well-Known Member

    Joined:
    May 11, 2014
    Messages:
    1,451
    Likes Received:
    105
    THANKS
     
  21. BeyoncePolska

    BeyoncePolska Member

    Joined:
    Feb 19, 2018
    Messages:
    65
    Likes Received:
    1