Beyoncé Feat. Jay-Z - Crazy In Love (PALLADIA-1080i-DD2.0)

Discussion in 'PALLADIA' started by 777josem, Jun 13, 2015.

  1. 777josem

    777josem Well-Known Member Uploader

    Joined:
    Sep 1, 2014
    Messages:
    2,925
    Likes Received:
    1,562
    [​IMG]
    [​IMG]
    [​IMG]
    [​IMG]

    General
    Complete name : E:\Beyonce feat.Jay-Z - Crazy In Love (Palladia)[HDTV-1080i].mpg
    Format : MPEG-PS
    File size : 487 MiB
    Duration : 3mn 56s
    Overall bit rate mode : Variable
    Overall bit rate : 17.3 Mbps

    Video
    ID : 224 (0xE0)
    Format : MPEG Video
    Format version : Version 2
    Format profile : [email protected]
    Format settings, BVOP : Yes
    Format settings, Matrix : Custom
    Format settings, GOP : Variable
    Format settings, picture st : Frame
    Duration : 3mn 56s
    Bit rate mode : Variable
    Bit rate : 16.6 Mbps
    Maximum bit rate : 32.0 Mbps
    Width : 1 920 pixels
    Height : 1 080 pixels
    Display aspect ratio : 16:9
    Frame rate : 29.970 fps
    Standard : Component
    Color space : YUV
    Chroma subsampling : 4:2:0
    Bit depth : 8 bits
    Scan type : Interlaced
    Scan order : Top Field First
    Compression mode : Lossy
    Bits/(Pixel*Frame) : 0.267
    Time code of first frame : 00:00:00;00
    Time code source : Group of pictures header
    GOP, Open/Closed : Closed
    Stream size : 467 MiB (96%)
    Color primaries : BT.709
    Transfer characteristics : BT.709
    Matrix coefficients : BT.709

    Audio
    ID : 189 (0xBD)-128 (0x80)
    Format : AC-3
    Format/Info : Audio Coding 3
    Mode extension : CM (complete main)
    Format settings, Endianness : Big
    Muxing mode : DVD-Video
    Duration : 3mn 56s
    Bit rate mode : Constant
    Bit rate : 384 Kbps
    Channel(s) : 2 channels
    Channel positions : Front: L R
    Sampling rate : 48.0 KHz
    Bit depth : 16 bits
    Compression mode : Lossy
    Stream size : 10.8 MiB (2%)

    Hidden Content:
    You must reply before you can see the hidden data contained here.
     
    rhea and Dave like this.
  2. Loading...


  3. Crusha

    Crusha Well-Known Member Capper

    Joined:
    Oct 15, 2014
    Messages:
    2,350
    Likes Received:
    2,251
    thank you
     
  4. Dave

    Dave Well-Known Member

    Joined:
    Jun 2, 2015
    Messages:
    611
    Likes Received:
    318
     
  5. rhea

    rhea Well-Known Member

    Joined:
    Jan 6, 2014
    Messages:
    5,648
    Likes Received:
    365
    thank you so much! :)
     
  6. mdrf1

    mdrf1 Member

    Joined:
    May 17, 2014
    Messages:
    329
    Likes Received:
    26
    thank you so much
     
  7. PoolBB

    PoolBB New Member

    Joined:
    Nov 10, 2014
    Messages:
    27
    Likes Received:
    0
    thank you
     
  8. dreemo

    dreemo Member

    Joined:
    Mar 13, 2015
    Messages:
    76
    Likes Received:
    1
    nice. thank you
     
  9. 江雨燃双鱼

    江雨燃双鱼 Active Member

    Joined:
    Apr 5, 2014
    Messages:
    595
    Likes Received:
    36
  10. hanibal.king

    hanibal.king Member

    Joined:
    Jun 4, 2015
    Messages:
    35
    Likes Received:
    0
    thanks for this video
     
  11. chianafan

    chianafan Member

    Joined:
    May 20, 2015
    Messages:
    89
    Likes Received:
    0
    thank you
     
  12. miguelmr87

    miguelmr87 Active Member

    Joined:
    Dec 20, 2013
    Messages:
    494
    Likes Received:
    154
    thank you
     
  13. alan

    alan Member

    Joined:
    Jun 27, 2015
    Messages:
    328
    Likes Received:
    8
    thanks you
     
  14. fernando cabrera

    fernando cabrera Member

    Joined:
    Sep 21, 2014
    Messages:
    118
    Likes Received:
    2
     
  15. Jesus Miguel Rivero

    Jesus Miguel Rivero Member

    Joined:
    Jul 9, 2015
    Messages:
    275
    Likes Received:
    4
    thank you so much
     
  16. Dreamer

    Dreamer Lana Del Rey ♥ Capper Uploader

    Joined:
    Dec 4, 2014
    Messages:
    2,480
    Likes Received:
    2,646
    Thank you
     
  17. shopangle20

    shopangle20 Member

    Joined:
    Sep 30, 2015
    Messages:
    76
    Likes Received:
    4
    THANKYOU
     
  18. Anderson Ferreira

    Anderson Ferreira Member

    Joined:
    Jul 14, 2014
    Messages:
    73
    Likes Received:
    0
  19. Himperios

    Himperios Member

    Joined:
    Oct 11, 2015
    Messages:
    285
    Likes Received:
    14
    Good
     
  20. Regis

    Regis Well-Known Member

    Joined:
    Jul 14, 2015
    Messages:
    1,022
    Likes Received:
    25
    obrigado :D
     
  21. wattjunior

    wattjunior Member

    Joined:
    Dec 10, 2015
    Messages:
    220
    Likes Received:
    7
    THANNNNNKS