WEB-RiP Beyoncé - Drunk in Love (Live from Mrs. Carter Show World Tour) - X10 M4V FULL HD

Discussion in 'HD Live Performances' started by Marcos Sannin, Apr 18, 2019.

  1. Marcos Sannin

    Marcos Sannin Well-Known Member

    Joined:
    Dec 11, 2014
    Messages:
    1,132
    Likes Received:
    1,608
    [​IMG]
    Complete name : 06 Drunk in Love (Live from Mrs. Carter Show World Tour).m4v
    Format : MPEG-4
    Codec ID : M4V (M4V /mp42/isom)
    File size : 163 MiB
    Duration : 4 min 7 s
    Overall bit rate : 5 527 kb/s
    Movie name : Drunk in Love (Live from Mrs. Carter Show World Tour)
    Track name/Position : 6
    Performer : Beyoncé
    Genre : Pop
    ContentType : Music Video
    Recorded date : UTC 2014-11-24 08:00:00
    Encoded date : UTC 2015-06-01 14:28:20
    Tagged date : UTC 2015-06-01 14:28:20
    Cover : Yes
    Rating : Explicit
    AppleStoreAccount : melinapalermo2@maildu.de
    ownr : Melina Palermo
    AppleStoreCatalogID : 939778317
    AlbumTitleID : 1419227
    GenreID : 1614
    AppleStoreCountry : 143485
    PurchaseDate : 2017-12-16 17:02:41
    Vendor : SonyBMG:vendor_id:886444935265_USSM21401910
    Flavour : 18:1080p
    ContentRating : ||0|

    Video
    ID : 1
    Format : AVC
    Format/Info : Advanced Video Codec
    Format profile : High@L4
    Format settings : CABAC / 4 Ref Frames
    Format settings, CABAC : Yes
    Format settings, ReFrames : 4 frames
    Codec ID : avc1
    Codec ID/Info : Advanced Video Coding
    Duration : 4 min 7 s
    Bit rate : 5 235 kb/s
    Width : 1 920 pixels
    Height : 1 080 pixels
    Display aspect ratio : 16:9
    Frame rate mode : Variable
    Frame rate : 23.976 FPS
    Minimum frame rate : 23.976 FPS
    Maximum frame rate : 24.769 FPS
    Color space : YUV
    Chroma subsampling : 4:2:0
    Bit depth : 8 bits
    Scan type : Progressive
    Bits/(Pixel*Frame) : 0.105
    Stream size : 154 MiB (95%)
    Title : Core Media Video
    Language : English
    Encoded date : UTC 2015-06-01 14:28:20
    Tagged date : UTC 2015-06-01 14:28:20
    Color range : Limited
    Color primaries : BT.709
    Transfer characteristics : BT.709
    Matrix coefficients : BT.709

    Audio
    ID : 2
    Format : AAC
    Format/Info : Advanced Audio Codec
    Format profile : LC
    Codec ID : mp4a-40-2
    Duration : 4 min 7 s
    Source duration : 4 min 7 s
    Bit rate mode : Constant
    Bit rate : 256 kb/s
    Channel(s) : 2 channels
    Channel positions : Front: L R
    Sampling rate : 48.0 kHz
    Frame rate : 46.875 FPS (1024 SPF)
    Compression mode : Lossy
    Stream size : 7.50 MiB (5%)
    Source stream size : 7.50 MiB (5%)
    Title : Core Media Audio
    Language : English
    Encoded date : UTC 2015-06-01 14:28:20
    Tagged date : UTC 2015-06-01 14:28:20

    Google Drive
    Hidden Content:
    You must either reply or click 'Like' to see the hidden information contained here.
     
  2. Loading...


  3. hanshermann

    hanshermann Well-Known Member Uploader

    Joined:
    Aug 24, 2016
    Messages:
    7,827
    Likes Received:
    18,117
    wahts taht
     
  4. mcslimshady

    mcslimshady Well-Known Member

    Joined:
    Jun 20, 2016
    Messages:
    2,551
    Likes Received:
    94
    thanks man
     
  5. digimaze

    digimaze Well-Known Member

    Joined:
    Feb 11, 2015
    Messages:
    2,142
    Likes Received:
    173
    thanks
     
  6. AthiJ

    AthiJ Member

    Joined:
    Oct 30, 2016
    Messages:
    128
    Likes Received:
    7
    Thanks.
     
  7. Venividivici

    Venividivici Active Member

    Joined:
    Sep 5, 2014
    Messages:
    404
    Likes Received:
    31
    thanks a lot
     
  8. Nique

    Nique New Member

    Joined:
    May 19, 2015
    Messages:
    8
    Likes Received:
    0
    thanks
     
  9. solita456p

    solita456p Member

    Joined:
    Jun 12, 2018
    Messages:
    142
    Likes Received:
    3
    gracias
     
  10. blackpinkisrael

    blackpinkisrael Member

    Joined:
    Mar 28, 2019
    Messages:
    44
    Likes Received:
    2
  11. django

    django Active Member

    Joined:
    Oct 21, 2014
    Messages:
    429
    Likes Received:
    35
    thanks
     
  12. wiki33

    wiki33 Member

    Joined:
    Oct 19, 2016
    Messages:
    36
    Likes Received:
    0
    thanks
     
  13. mizdot

    mizdot Well-Known Member

    Joined:
    Nov 13, 2014
    Messages:
    3,682
    Likes Received:
    179
    tnx man
     
  14. Rega

    Rega Member

    Joined:
    Feb 9, 2017
    Messages:
    142
    Likes Received:
    5
  15. emmanuelquiroga

    emmanuelquiroga Member

    Joined:
    Apr 22, 2019
    Messages:
    197
    Likes Received:
    4
  16. DCunplug

    DCunplug Member

    Joined:
    Oct 11, 2015
    Messages:
    199
    Likes Received:
    7
  17. Ayann

    Ayann Member

    Joined:
    Oct 27, 2016
    Messages:
    45
    Likes Received:
    2
    thanks
     
  18. dersullana

    dersullana Well-Known Member

    Joined:
    Dec 21, 2015
    Messages:
    1,818
    Likes Received:
    82
  19. bigquinn

    bigquinn Active Member

    Joined:
    Oct 25, 2018
    Messages:
    817
    Likes Received:
    31
  20. luismoreno

    luismoreno Member

    Joined:
    Jan 23, 2017
    Messages:
    163
    Likes Received:
    4
    thank you
     
  21. yonceonhismouth

    yonceonhismouth Member

    Joined:
    May 18, 2019
    Messages:
    101
    Likes Received:
    2