Beyoncé - Diva (MTV BASE HD-1080i-DD2.0-Olgold)

Discussion in 'MTV BASE' started by DETOX, Feb 24, 2015.

  1. DETOX

    DETOX Well-Known Member V . I . P. Uploader

    Joined:
    Feb 20, 2014
    Messages:
    2,765
    Likes Received:
    14,118


    Beyoncé - Diva (MTV BASE HD-1080i-DD2.0-Olgold)
    [​IMG]

    General
    ID : 16 (0x10)
    Complete name : Beyoncé - Diva (MTV BASE HD-1080i-DD2.0-Olgold).ts
    Format : MPEG-TS
    File size : 237 MiB
    Duration : 3mn 58s
    Overall bit rate mode : Variable
    Overall bit rate : 8 322 Kbps

    Video
    ID : 110 (0x6E)
    Menu ID : 8001 (0x1F41)
    Format : AVC
    Format/Info : Advanced Video Codec
    Format profile : [email protected]
    Format settings, CABAC : Yes
    Format settings, ReFrames : 4 frames
    Codec ID : 27
    Duration : 3mn 58s
    Bit rate : 7 652 Kbps
    Width : 1 920 pixels
    Height : 1 080 pixels
    Display aspect ratio : 16:9
    Frame rate : 25.000 fps
    Standard : Component
    Color space : YUV
    Chroma subsampling : 4:2:0
    Bit depth : 8 bits
    Scan type : MBAFF
    Scan order : Top Field First
    Bits/(Pixel*Frame) : 0.148
    Stream size : 218 MiB (92%)
    Color primaries : BT.709
    Transfer characteristics : BT.709
    Matrix coefficients : BT.709
    Color range : Limited

    Audio
    ID : 121 (0x79)
    Menu ID : 8001 (0x1F41)
    Format : AC-3
    Format/Info : Audio Coding 3
    Mode extension : CM (complete main)
    Format settings, Endianness : Big
    Codec ID : 6
    Duration : 3mn 59s
    Bit rate mode : Constant
    Bit rate : 256 Kbps
    Channel(s) : 2 channels
    Channel positions : Front: L R
    Sampling rate : 48.0 KHz
    Bit depth : 16 bits
    Compression mode : Lossy
    Delay relative to video : 140ms
    Stream size : 7.29 MiB (3%)
    Language : English
    Language, more info : Clean effects

    Credits to Olgold

    SERVER: MEGA / PASSWORD: DETOX

    Hidden Content:
    You must reply before you can see the hidden data contained here.
     
    Last edited: Mar 3, 2015
    WesleyCunha, rhea and CELOBRAZiL like this.
  2. Loading...


  3. rhea

    rhea Well-Known Member

    Joined:
    Jan 6, 2014
    Messages:
    5,277
    Likes Received:
    253
    thank you so much!
     
  4. fernando cabrera

    fernando cabrera Member

    Joined:
    Sep 21, 2014
    Messages:
    112
    Likes Received:
    2
    beyoncé!! thanx
     
  5. Danielcha

    Danielcha Member

    Joined:
    Sep 20, 2014
    Messages:
    74
    Likes Received:
    0
    thanks so much
     
  6. vivoj

    vivoj Member

    Joined:
    Mar 22, 2014
    Messages:
    44
    Likes Received:
    3
    thanks you
     
  7. Marcos Sannin

    Marcos Sannin Active Member

    Joined:
    Dec 11, 2014
    Messages:
    194
    Likes Received:
    28
    Na Na Na Diva
     
  8. Marcos Sannin

    Marcos Sannin Active Member

    Joined:
    Dec 11, 2014
    Messages:
    194
    Likes Received:
    28
  9. multimediafm

    multimediafm Well-Known Member Donor

    Joined:
    Mar 27, 2014
    Messages:
    8,311
    Likes Received:
    342
    Thanks :)
    Beyoncé - Diva (MTV BASE HD-1080i-DD2.0-Olgold)
     
  10. Gonhewitt

    Gonhewitt Member

    Joined:
    May 24, 2015
    Messages:
    146
    Likes Received:
    2
    THANKS YOU SO MUCH
     
  11. marlyvasconceles

    marlyvasconceles Member

    Joined:
    Sep 7, 2014
    Messages:
    243
    Likes Received:
    2
  12. Vinny

    Vinny Active Member

    Joined:
    Dec 26, 2013
    Messages:
    1,771
    Likes Received:
    7
    Thank U!
     
  13. Himperios

    Himperios Member

    Joined:
    Oct 11, 2015
    Messages:
    282
    Likes Received:
    14
    good
     
  14. yhkim

    yhkim Active Member

    Joined:
    Nov 19, 2013
    Messages:
    670
    Likes Received:
    6
    thank you so much
     
  15. Regis

    Regis Active Member

    Joined:
    Jul 14, 2015
    Messages:
    997
    Likes Received:
    25
    thanks so much
     
  16. Regis

    Regis Active Member

    Joined:
    Jul 14, 2015
    Messages:
    997
    Likes Received:
    25
    THANKS YOU SO MUCH
     
  17. Snorom6

    Snorom6 Well-Known Member Uploader

    Joined:
    Dec 17, 2015
    Messages:
    4,246
    Likes Received:
    3,568
  18. oarthurcom

    oarthurcom Member

    Joined:
    Oct 23, 2015
    Messages:
    50
    Likes Received:
    0
    thank you
     
  19. honiamam

    honiamam Member

    Joined:
    Apr 1, 2016
    Messages:
    158
    Likes Received:
    12
    thank you again
     
  20. ivko02

    ivko02 Member

    Joined:
    Jun 20, 2016
    Messages:
    134
    Likes Received:
    2
    thank you
     
  21. Jrec

    Jrec Member

    Joined:
    May 11, 2016
    Messages:
    610
    Likes Received:
    23
    Thanks