SDTV Beyoncé - Déjà Vu (Live at BET Awards 2006) [SD-480i]

Discussion in 'SD Live Performances' started by DETOX, Oct 27, 2016.

  1. DETOX

    DETOX So baby bye bye bye ♫ V . I . P. Uploader

    Joined:
    Feb 20, 2014
    Messages:
    4,841
    Likes Received:
    42,131
    REQUEST: http://sharemania.us/threads/beyonce-3-bet-sd-live.31610/

    [​IMG]
    Code:
    General
    Complete name                            : Beyoncé - Déjà Vu (Live at BET Awards 2006) [SD-480i].VOB
    Format                                   : MPEG-PS
    File size                                : 188 MiB
    Duration                                 : 3 min 51 s
    Overall bit rate mode                    : Variable
    Overall bit rate                         : 6 816 kb/s
    
    Video
    ID                                       : 224 (0xE0)
    Format                                   : MPEG Video
    Format version                           : Version 2
    Format profile                           : Main@Main
    Format settings, BVOP                    : Yes
    Format settings, Matrix                  : Custom
    Format settings, GOP                     : Variable
    Format settings, picture structure       : Frame
    Duration                                 : 3 min 51 s
    Bit rate mode                            : Variable
    Bit rate                                 : 6 489 kb/s
    Width                                    : 720 pixels
    Height                                   : 480 pixels
    Display aspect ratio                     : 4:3
    Frame rate                               : 29.970 (30000/1001) FPS
    Standard                                 : NTSC
    Color space                              : YUV
    Chroma subsampling                       : 4:2:0
    Bit depth                                : 8 bits
    Scan type                                : Interlaced
    Scan order                               : Top Field First
    Compression mode                         : Lossy
    Bits/(Pixel*Frame)                       : 0.626
    Time code of first frame                 : 01:09:06:00
    Time code source                         : Group of pictures header
    Stream size                              : 179 MiB (95%)
    
    Audio
    ID                                       : 189 (0xBD)-128 (0x80)
    Format                                   : AC-3
    Format/Info                              : Audio Coding 3
    Mode extension                           : CM (complete main)
    Format settings, Endianness              : Big
    Muxing mode                              : DVD-Video
    Duration                                 : 3 min 51 s
    Bit rate mode                            : Constant
    Bit rate                                 : 192 kb/s
    Channel(s)                               : 2 channels
    Channel positions                        : Front: L R
    Sampling rate                            : 48.0 kHz
    Frame rate                               : 31.250 FPS (1536 spf)
    Compression mode                         : Lossy
    Delay relative to video                  : -217 ms
    Stream size                              : 5.31 MiB (3%)
    Server: cloud.mail.ru, MEGA
    Hidden Content:
    You must either reply or click 'Like' to see the hidden information contained here.
     
    dshjere, qweeenbey, Mina345 and 49 others like this.
  2. Loading...


  3. jonnyweng97

    jonnyweng97 Member

    Joined:
    Oct 7, 2016
    Messages:
    168
    Likes Received:
    3
    thank you
     
  4. BetaKsi

    BetaKsi Well-Known Member

    Joined:
    Oct 18, 2015
    Messages:
    1,931
    Likes Received:
    537
    Thank you))
     
  5. Danny82

    Danny82 Well-Known Member

    Joined:
    May 28, 2016
    Messages:
    2,358
    Likes Received:
    654
    Thank You so much!!!
     
  6. Maura

    Maura Well-Known Member

    Joined:
    Apr 7, 2014
    Messages:
    3,061
    Likes Received:
    96
    thank you
     
  7. TrendMusic

    TrendMusic Well-Known Member

    Joined:
    Oct 7, 2013
    Messages:
    1,680
    Likes Received:
    156
  8. Rafael Balbinotte

    Rafael Balbinotte Member Donor

    Joined:
    Sep 1, 2014
    Messages:
    245
    Likes Received:
    7
  9. Cesar

    Cesar Member

    Joined:
    Nov 11, 2013
    Messages:
    458
    Likes Received:
    16
    thanks
     
  10. multimediafm

    multimediafm Well-Known Member Donor

    Joined:
    Mar 27, 2014
    Messages:
    12,883
    Likes Received:
    1,013
  11. andreamonger

    andreamonger Well-Known Member

    Joined:
    May 16, 2015
    Messages:
    1,375
    Likes Received:
    219
    yass thanks
     
  12. mjh13578

    mjh13578 Member

    Joined:
    Dec 7, 2013
    Messages:
    421
    Likes Received:
    13
    Thank you!:)
     
  13. Tommyboy

    Tommyboy Active Member

    Joined:
    Oct 23, 2016
    Messages:
    907
    Likes Received:
    35
    Very nice
     
  14. toonbbv

    toonbbv Well-Known Member

    Joined:
    Dec 11, 2013
    Messages:
    2,188
    Likes Received:
    103
    thank you
     
  15. vkangelo

    vkangelo Member

    Joined:
    Jul 5, 2014
    Messages:
    131
    Likes Received:
    7
    thanks
     
  16. xiao_yu_1019

    xiao_yu_1019 Active Member

    Joined:
    Jan 1, 2015
    Messages:
    565
    Likes Received:
    40
    thx a lot
     
  17. Nicolas Martins

    Nicolas Martins Saint

    Joined:
    Sep 22, 2014
    Messages:
    1,147
    Likes Received:
    127
    Thankss
     
  18. beyknow

    beyknow Member

    Joined:
    Aug 30, 2016
    Messages:
    115
    Likes Received:
    6
    thanks
     
  19. thankstome

    thankstome Well-Known Member

    Joined:
    Feb 6, 2014
    Messages:
    924
    Likes Received:
    1,313
    thanks
     
  20. JPGAmbrosino

    JPGAmbrosino Active Member

    Joined:
    Jul 30, 2016
    Messages:
    631
    Likes Received:
    28
    txs
    a lotttt
     
  21. mcslimshady

    mcslimshady Well-Known Member

    Joined:
    Jun 20, 2016
    Messages:
    1,825
    Likes Received:
    46
    thanks man.