HDTV Beyoncé - Crazy In Love (TOTP - 04-Jul-2003) [TOTP2 New Years Eve Special - 31-Dec-2018] 1080i

Discussion in 'HD Live Performances' started by sideshow_bob, Jan 2, 2019.

  1. sideshow_bob

    sideshow_bob Well-Known Member

    Joined:
    Dec 20, 2013
    Messages:
    3,350
    Likes Received:
    348
    [​IMG]


    General
    ID : 1 (0x1)
    Complete name : Beyoncé - Crazy In Love (TOTP - 04-Jul-2003) [TOTP2 New Years Eve Special - 31-Dec-2018] 1080i.ts
    Format : MPEG-TS
    File size : 302 MiB
    Duration : 3 min 55 s
    Overall bit rate mode : Variable
    Overall bit rate : 10.8 Mb/s

    Video
    ID : 256 (0x100)
    Menu ID : 1 (0x1)
    Format : AVC
    Format/Info : Advanced Video Codec
    Format profile : High@L4
    Format settings : CABAC / 4 Ref Frames
    Format settings, CABAC : Yes
    Format settings, RefFrames : 4 frames
    Format settings, GOP : M=8, N=24
    Codec ID : 27
    Duration : 3 min 54 s
    Bit rate : 9 796 kb/s
    Width : 1 920 pixels
    Height : 1 080 pixels
    Display aspect ratio : 16:9
    Frame rate : 25.000 FPS
    Standard : Component
    Color space : YUV
    Chroma subsampling : 4:2:0
    Bit depth : 8 bits
    Scan type : MBAFF
    Scan type, store method : Separated fields
    Scan order : Top Field First
    Bits/(Pixel*Frame) : 0.189
    Stream size : 274 MiB (91%)
    Color range : Limited
    Color primaries : BT.709
    Transfer characteristics : BT.709
    Matrix coefficients : BT.709

    Audio #1
    ID : 257 (0x101)
    Menu ID : 1 (0x1)
    Format : AC-3
    Format/Info : Audio Coding 3
    Commercial name : Dolby Digital
    Codec ID : 129
    Duration : 3 min 55 s
    Bit rate mode : Constant
    Bit rate : 192 kb/s
    Channel(s) : 2 channels
    Channel layout : L R
    Sampling rate : 48.0 kHz
    Frame rate : 31.250 FPS (1536 SPF)
    Bit depth : 16 bits
    Compression mode : Lossy
    Delay relative to video : -369 ms
    Stream size : 5.38 MiB (2%)
    Service kind : Complete Main

    Audio #2
    ID : 258 (0x102)
    Menu ID : 1 (0x1)
    Format : MPEG Audio
    Format version : Version 1
    Format profile : Layer 2
    Codec ID : 3
    Duration : 3 min 55 s
    Bit rate mode : Constant
    Bit rate : 256 kb/s
    Channel(s) : 2 channels
    Sampling rate : 48.0 kHz
    Frame rate : 41.667 FPS (1152 SPF)
    Compression mode : Lossy
    Delay relative to video : -388 ms
    Stream size : 7.18 MiB (2%)

    Menu
    ID : 4096 (0x1000)
    Menu ID : 1 (0x1)
    Duration : 3 min 55 s
    List : 256 (0x100) (AVC) / 257 (0x101) (AC-3) / 258 (0x102) (MPEG Audio)
    Service name : Service01
    Service provider : FFmpeg
    Service type : digital television


    Hidden Content:
    You must either reply or click 'Like' to see the hidden information contained here.
     
  2. Loading...


  3. ianarturis

    ianarturis Well-Known Member

    Joined:
    Jan 6, 2018
    Messages:
    1,353
    Likes Received:
    666
    Thank you :love:
    more Beyoncé please.
     
  4. ianarturis

    ianarturis Well-Known Member

    Joined:
    Jan 6, 2018
    Messages:
    1,353
    Likes Received:
    666
  5. multimediafm

    multimediafm Well-Known Member Donor

    Joined:
    Mar 27, 2014
    Messages:
    14,315
    Likes Received:
    1,145
  6. logrono

    logrono Well-Known Member V . I . P.

    Joined:
    Mar 8, 2017
    Messages:
    1,843
    Likes Received:
    1,533
    Nice post, thanks
     
  7. nitrocell

    nitrocell
    Administrator
    Staff Member AdMiN Capper V . I . P.

    Joined:
    Nov 18, 2013
    Messages:
    1,096
    Likes Received:
    7,902
    3rd and 5th threads mirrored in cloud.mail.ru :wink:

    Every other you'll have to ask the thread OP or any other person that replied to it that might have the file
     
    theclimb and ianarturis like this.
  8. ianarturis

    ianarturis Well-Known Member

    Joined:
    Jan 6, 2018
    Messages:
    1,353
    Likes Received:
    666
    Thank you, i don't know how i missed the cloud.mail.ru link, i guess it was late and i've booked-marked them in a rush.
     
  9. nitrocell

    nitrocell
    Administrator
    Staff Member AdMiN Capper V . I . P.

    Joined:
    Nov 18, 2013
    Messages:
    1,096
    Likes Received:
    7,902
    I just added them now :wink:
     
    ianarturis likes this.
  10. ianarturis

    ianarturis Well-Known Member

    Joined:
    Jan 6, 2018
    Messages:
    1,353
    Likes Received:
    666
    OOOh!!! I was starting to think i'm surfing the net mindlessly without knowing what i was doing. Thank you very much for the reupload :love::love::love:
     
  11. theclimb

    theclimb Well-Known Member

    Joined:
    Dec 16, 2014
    Messages:
    1,478
    Likes Received:
    251
    Thank you! Happy new year and all the best to you @nitrocell!
     
    nitrocell likes this.
  12. alterion

    alterion Well-Known Member

    Joined:
    May 7, 2016
    Messages:
    1,911
    Likes Received:
    43
  13. Romana

    Romana Active Member

    Joined:
    Oct 26, 2013
    Messages:
    761
    Likes Received:
    116
    thaaank u!!
     
  14. peny20

    peny20 Well-Known Member

    Joined:
    Oct 23, 2013
    Messages:
    2,553
    Likes Received:
    70
    thanx
     
  15. miguelmr87

    miguelmr87 Well-Known Member

    Joined:
    Dec 20, 2013
    Messages:
    2,056
    Likes Received:
    421
    suiper danke, finally this performance in better qualioty¡¡
     
  16. TrendMusic

    TrendMusic Well-Known Member

    Joined:
    Oct 7, 2013
    Messages:
    1,912
    Likes Received:
    185
  17. Amauri Luiz

    Amauri Luiz Well-Known Member

    Joined:
    Jan 14, 2014
    Messages:
    2,180
    Likes Received:
    96
    Thank you!
     
  18. asexycowboy

    asexycowboy Active Member

    Joined:
    Apr 6, 2015
    Messages:
    718
    Likes Received:
    49
    Thank you!
     
  19. ulygatore

    ulygatore Well-Known Member

    Joined:
    Jun 29, 2017
    Messages:
    2,780
    Likes Received:
    113
  20. Adriano Everton

    Adriano Everton Well-Known Member

    Joined:
    Aug 25, 2014
    Messages:
    1,843
    Likes Received:
    198
  21. mizdot

    mizdot Well-Known Member

    Joined:
    Nov 13, 2014
    Messages:
    3,364
    Likes Received:
    158
    tnx man