SDTV Beyoncé - Crazy In Love (Live From Top Of The Pops Version 2)

Discussion in 'SD Live Performances' started by hanshermann, Apr 9, 2018.

  1. hanshermann

    hanshermann Well-Known Member Uploader

    Joined:
    Aug 24, 2016
    Messages:
    5,770
    Likes Received:
    7,354
    [​IMG]
    Beyoncé - Crazy In Love (Live From Top Of The Pops Version 2)

    General
    Complete name : Beyoncé - Crazy In Love (Live From Top Of The Pops Version 2) (768x576-5000kbps).mpg
    Format : MPEG-PS
    File size : 154 MiB
    Duration : 3 min 57 s
    Overall bit rate mode : Variable
    Overall bit rate : 5 455 kb/s
    Writing library : encoded by TMPGEnc (ver. 2.513.53.162)

    Video
    ID : 224 (0xE0)
    Format : MPEG Video
    Format version : Version 2
    Format profile : Main@Main
    Format settings, BVOP : Yes
    Format settings, Matrix : Custom
    Format settings, GOP : M=3, N=13
    Format settings, picture st : Frame
    Duration : 3 min 57 s
    Bit rate mode : Variable
    Bit rate : 5 000 kb/s
    Width : 720 pixels
    Height : 576 pixels
    Display aspect ratio : 4:3
    Frame rate : 25.000 FPS
    Standard : PAL
    Color space : YUV
    Chroma subsampling : 4:2:0
    Bit depth : 8 bits
    Scan type : Interlaced
    Scan order : Bottom Field First
    Compression mode : Lossy
    Bits/(Pixel*Frame) : 0.482
    Time code of first frame : 00:00:00:00
    Time code source : Group of pictures header
    GOP, Open/Closed : Closed
    Stream size : 140 MiB (91%)
    Writing library : TMPGEnc 2.513.53.162
    Color primaries : BT.601 PAL
    Transfer characteristics : BT.470 System B, BT.470 System G
    Matrix coefficients : FCC 73.682

    Audio
    ID : 192 (0xC0)
    Format : MPEG Audio
    Format version : Version 1
    Format profile : Layer 2
    Duration : 3 min 57 s
    Bit rate mode : Constant
    Bit rate : 384 kb/s
    Channel(s) : 2 channels
    Sampling rate : 48.0 kHz
    Compression mode : Lossy
    Stream size : 10.9 MiB (7%)

    Hidden Content:
    You must either reply or click 'Like' to see the hidden information contained here.
     
    Last edited: Apr 13, 2018
    apl3, biglovejoy, qweeenbey and 7 others like this.
  2. Loading...


  3. BetaKsi

    BetaKsi Well-Known Member

    Joined:
    Oct 18, 2015
    Messages:
    1,692
    Likes Received:
    493
    Thank you))
     
  4. hungquocphan

    hungquocphan Active Member

    Joined:
    Nov 1, 2013
    Messages:
    667
    Likes Received:
    34
  5. exterminador

    exterminador Well-Known Member

    Joined:
    Jul 3, 2016
    Messages:
    2,091
    Likes Received:
    184
  6. maxmax

    maxmax Member

    Joined:
    Jan 11, 2018
    Messages:
    135
    Likes Received:
    3
    thank uuu
     
  7. multimediafm

    multimediafm Well-Known Member Donor

    Joined:
    Mar 27, 2014
    Messages:
    11,951
    Likes Received:
    788