SDTV Beyoncé - Crazy In Love (Live From Top Of The Pops Version 2)

Discussion in 'SD Live Performances' started by hanshermann, Apr 9, 2018.

  1. hanshermann

    hanshermann Well-Known Member Uploader

    Joined:
    Aug 24, 2016
    Messages:
    6,463
    Likes Received:
    9,939
    [​IMG]
    Beyoncé - Crazy In Love (Live From Top Of The Pops Version 2)

    General
    Complete name : Beyoncé - Crazy In Love (Live From Top Of The Pops Version 2) (768x576-5000kbps).mpg
    Format : MPEG-PS
    File size : 154 MiB
    Duration : 3 min 57 s
    Overall bit rate mode : Variable
    Overall bit rate : 5 455 kb/s
    Writing library : encoded by TMPGEnc (ver. 2.513.53.162)

    Video
    ID : 224 (0xE0)
    Format : MPEG Video
    Format version : Version 2
    Format profile : Main@Main
    Format settings, BVOP : Yes
    Format settings, Matrix : Custom
    Format settings, GOP : M=3, N=13
    Format settings, picture st : Frame
    Duration : 3 min 57 s
    Bit rate mode : Variable
    Bit rate : 5 000 kb/s
    Width : 720 pixels
    Height : 576 pixels
    Display aspect ratio : 4:3
    Frame rate : 25.000 FPS
    Standard : PAL
    Color space : YUV
    Chroma subsampling : 4:2:0
    Bit depth : 8 bits
    Scan type : Interlaced
    Scan order : Bottom Field First
    Compression mode : Lossy
    Bits/(Pixel*Frame) : 0.482
    Time code of first frame : 00:00:00:00
    Time code source : Group of pictures header
    GOP, Open/Closed : Closed
    Stream size : 140 MiB (91%)
    Writing library : TMPGEnc 2.513.53.162
    Color primaries : BT.601 PAL
    Transfer characteristics : BT.470 System B, BT.470 System G
    Matrix coefficients : FCC 73.682

    Audio
    ID : 192 (0xC0)
    Format : MPEG Audio
    Format version : Version 1
    Format profile : Layer 2
    Duration : 3 min 57 s
    Bit rate mode : Constant
    Bit rate : 384 kb/s
    Channel(s) : 2 channels
    Sampling rate : 48.0 kHz
    Compression mode : Lossy
    Stream size : 10.9 MiB (7%)

    Hidden Content:
    You must either reply or click 'Like' to see the hidden information contained here.
     
    Last edited: Apr 13, 2018
    3veronicas, Ramon, ellyzeu and 12 others like this.
  2. Loading...


  3. BetaKsi

    BetaKsi Well-Known Member

    Joined:
    Oct 18, 2015
    Messages:
    1,926
    Likes Received:
    537
    Thank you))
     
  4. hungquocphan

    hungquocphan Active Member

    Joined:
    Nov 1, 2013
    Messages:
    721
    Likes Received:
    36
  5. exterminador

    exterminador Well-Known Member

    Joined:
    Jul 3, 2016
    Messages:
    2,295
    Likes Received:
    201
  6. maxmax

    maxmax Member

    Joined:
    Jan 11, 2018
    Messages:
    155
    Likes Received:
    3
    thank uuu
     
  7. multimediafm

    multimediafm Well-Known Member Donor

    Joined:
    Mar 27, 2014
    Messages:
    12,878
    Likes Received:
    1,013
  8. toonbbv

    toonbbv Well-Known Member

    Joined:
    Dec 11, 2013
    Messages:
    2,188
    Likes Received:
    103
    thank you
     
  9. rkgmade

    rkgmade Active Member

    Joined:
    Sep 29, 2016
    Messages:
    744
    Likes Received:
    28
    thank you
     
  10. peidofeito

    peidofeito Member

    Joined:
    Sep 4, 2016
    Messages:
    154
    Likes Received:
    2
  11. ander.p.u

    ander.p.u Member

    Joined:
    Apr 19, 2018
    Messages:
    65
    Likes Received:
    1
    Gracias
     
  12. Dj Andrey

    Dj Andrey New Member

    Joined:
    Jun 9, 2018
    Messages:
    23
    Likes Received:
    0
    thank you
     
  13. yoncequality

    yoncequality Member

    Joined:
    Jan 8, 2018
    Messages:
    195
    Likes Received:
    4
    dfghjkl;