SDTV Beyoncé - Crazy in love (Live at BET Awards 2003) [SD-480i]

Discussion in 'SD Live Performances' started by DETOX, Oct 27, 2016.

  1. DETOX

    DETOX NEYDE FAN ❤️ V . I . P. Uploader

    Joined:
    Feb 20, 2014
    Messages:
    5,096
    Likes Received:
    45,556
    REQUEST: http://sharemania.us/threads/beyonce-3-bet-sd-live.31610/

    [​IMG]
    Code:
    General
    Complete name                            : Beyoncé - Crazy in love (Live at BET Awards 2003) [SD-480i].VOB
    Format                                   : MPEG-PS
    File size                                : 209 MiB
    Duration                                 : 1 s 536 ms
    Overall bit rate mode                    : Variable
    Overall bit rate                         : 1 140 Mb/s
    
    Video
    ID                                       : 224 (0xE0)
    Format                                   : MPEG Video
    Format version                           : Version 2
    Format profile                           : Main@Main
    Format settings, BVOP                    : Yes
    Format settings, Matrix                  : Custom
    Format settings, GOP                     : Variable
    Format settings, picture structure       : Frame
    Duration                                 : 1 s 534 ms
    Bit rate mode                            : Variable
    Bit rate                                 : 1 117 Mb/s
    Width                                    : 720 pixels
    Height                                   : 480 pixels
    Display aspect ratio                     : 4:3
    Frame rate                               : 29.970 (30000/1001) FPS
    Standard                                 : NTSC
    Color space                              : YUV
    Chroma subsampling                       : 4:2:0
    Bit depth                                : 8 bits
    Scan type                                : Interlaced
    Scan order                               : Top Field First
    Compression mode                         : Lossy
    Bits/(Pixel*Frame)                       : 107.826
    Time code of first frame                 : 01:09:06:00
    Time code source                         : Group of pictures header
    Stream size                              : 204 MiB (98%)
    
    Audio
    ID                                       : 189 (0xBD)-128 (0x80)
    Format                                   : AC-3
    Format/Info                              : Audio Coding 3
    Mode extension                           : CM (complete main)
    Format settings, Endianness              : Big
    Muxing mode                              : DVD-Video
    Duration                                 : 1 s 536 ms
    Bit rate mode                            : Constant
    Bit rate                                 : 192 kb/s
    Channel(s)                               : 2 channels
    Channel positions                        : Front: L R
    Sampling rate                            : 48.0 kHz
    Frame rate                               : 31.250 FPS (1536 spf)
    Compression mode                         : Lossy
    Delay relative to video                  : -198 ms
    Stream size                              : 36.0 KiB (0%)
    Server: cloud.mail.ru, MEGA
    Hidden Content:
    You must either reply or click 'Like' to see the hidden information contained here.
     
  2. Loading...


  3. manolo2020

    manolo2020 Member

    Joined:
    Oct 16, 2016
    Messages:
    72
    Likes Received:
    1
    gracias x el clip de la sexy beyonce
     
  4. miguelmr87

    miguelmr87 Well-Known Member

    Joined:
    Dec 20, 2013
    Messages:
    1,300
    Likes Received:
    291
    don't questions about if it has been capped from a channel ,
    it happens to be a vob ripped from a BET-dvd selled on walmart, for that reason it has lpcm, good bitrate & no logo.,
    thanks for sharing,.
     
  5. jonnyweng97

    jonnyweng97 Member

    Joined:
    Oct 7, 2016
    Messages:
    168
    Likes Received:
    3
  6. Maura

    Maura Well-Known Member

    Joined:
    Apr 7, 2014
    Messages:
    3,139
    Likes Received:
    101
    thank you
     
  7. TrendMusic

    TrendMusic Well-Known Member

    Joined:
    Oct 7, 2013
    Messages:
    1,708
    Likes Received:
    159
  8. Rafael Balbinotte

    Rafael Balbinotte Member Donor

    Joined:
    Sep 1, 2014
    Messages:
    245
    Likes Received:
    7
  9. multimediafm

    multimediafm Well-Known Member Donor

    Joined:
    Mar 27, 2014
    Messages:
    13,139
    Likes Received:
    1,045
  10. andreamonger

    andreamonger Well-Known Member

    Joined:
    May 16, 2015
    Messages:
    1,392
    Likes Received:
    222
    wooow yaas
     
  11. karenbirba

    karenbirba Member

    Joined:
    Sep 11, 2016
    Messages:
    61
    Likes Received:
    16
  12. mjh13578

    mjh13578 Member

    Joined:
    Dec 7, 2013
    Messages:
    427
    Likes Received:
    13
    Thank you!:)
     
  13. toonbbv

    toonbbv Well-Known Member

    Joined:
    Dec 11, 2013
    Messages:
    2,205
    Likes Received:
    105
    thank you
     
  14. kate bluf

    kate bluf Member

    Joined:
    Oct 31, 2015
    Messages:
    171
    Likes Received:
    7
  15. wangyuqiang

    wangyuqiang Member

    Joined:
    Jul 21, 2016
    Messages:
    141
    Likes Received:
    6
    thank you so much
     
  16. vkangelo

    vkangelo Member

    Joined:
    Jul 5, 2014
    Messages:
    130
    Likes Received:
    7
    thanks
     
  17. Tommyboy

    Tommyboy Active Member

    Joined:
    Oct 23, 2016
    Messages:
    939
    Likes Received:
    36
    Thanks
     
  18. Saint

    Saint WHY HELLO WORLD?

    Joined:
    Sep 22, 2014
    Messages:
    1,179
    Likes Received:
    129
    Thanks
     
  19. will27

    will27 New Member

    Joined:
    Oct 20, 2016
    Messages:
    20
    Likes Received:
    1
    thanks
     
  20. beyknow

    beyknow Member

    Joined:
    Aug 30, 2016
    Messages:
    117
    Likes Received:
    6
    THANKS
     
  21. thankstome

    thankstome Well-Known Member

    Joined:
    Feb 6, 2014
    Messages:
    951
    Likes Received:
    1,341
    thanks