CC Beyoncé - Countdown (MUCHHD-1080i-DD5.1-AmazonBoy) [CC]

Discussion in 'MUCH HD' started by DETOX, Jan 21, 2016.

  1. DETOX

    DETOX Well-Known Member V . I . P. Uploader

    Joined:
    Feb 20, 2014
    Messages:
    2,584
    Likes Received:
    12,102
    [​IMG]
    Code:
    General
    ID                                       : 1 (0x1)
    Complete name                            : Beyoncé - Countdown (MUCHHD-1080i-DD5.1-AmazonBoy).ts
    Format                                   : MPEG-TS
    File size                                : 399 MiB
    Duration                                 : 3mn 33s
    Overall bit rate mode                    : Variable
    Overall bit rate                         : 15.7 Mbps
    Movie name                               : New Music Videos
    Law rating                               : E
    
    Video
    ID                                       : 224 (0xE0)
    Menu ID                                  : 1 (0x1)
    Format                                   : MPEG Video
    Format version                           : Version 2
    Format profile                           : [email protected]
    Format settings, BVOP                    : Yes
    Format settings, Matrix                  : Custom
    Format settings, GOP                     : Variable
    Format settings, picture structure       : Frame
    Codec ID                                 : 2
    Duration                                 : 3mn 33s
    Bit rate mode                            : Variable
    Bit rate                                 : 14.5 Mbps
    Maximum bit rate                         : 20.0 Mbps
    Width                                    : 1 920 pixels
    Height                                   : 1 080 pixels
    Display aspect ratio                     : 16:9
    Frame rate                               : 29.970 fps
    Color space                              : YUV
    Chroma subsampling                       : 4:2:0
    Bit depth                                : 8 bits
    Scan type                                : Interlaced
    Scan order                               : Top Field First
    Compression mode                         : Lossy
    Bits/(Pixel*Frame)                       : 0.234
    Time code of first frame                 : 00:00:00;00
    Time code source                         : Group of pictures header
    Stream size                              : 369 MiB (92%)
    Writing library                          : (c) 1998-2011 Womble Multimedia, Inc. / MPEG Video Wizard DVD 5.0.1.100 (03/2011) / Sep  8 2011
    
    Audio
    ID                                       : 128 (0x80)
    Menu ID                                  : 1 (0x1)
    Format                                   : AC-3
    Format/Info                              : Audio Coding 3
    Mode extension                           : CM (complete main)
    Format settings, Endianness              : Big
    Codec ID                                 : 129
    Duration                                 : 3mn 33s
    Bit rate mode                            : Constant
    Bit rate                                 : 384 Kbps
    Channel(s)                               : 6 channels
    Channel positions                        : Front: L C R, Side: L R, LFE
    Sampling rate                            : 48.0 KHz
    Bit depth                                : 16 bits
    Compression mode                         : Lossy
    Stream size                              : 9.75 MiB (2%)
    Language                                 : English
    
    Text #1
    ID                                       : 224 (0xE0)-CC1
    Menu ID                                  : 1 (0x1)
    Format                                   : EIA-608
    Muxing mode                              : A/53 / DTVCC Transport
    Muxing mode, more info                   : Muxed in Video #1
    Duration                                 : 3mn 33s
    Bit rate mode                            : Constant
    Stream size                              : 0.00 Byte (0%)
    
    Text #2
    ID                                       : 224 (0xE0)-1
    Menu ID                                  : 1 (0x1)
    Format                                   : EIA-708
    Muxing mode                              : A/53 / DTVCC Transport
    Muxing mode, more info                   : Muxed in Video #1
    Duration                                 : 3mn 33s
    Bit rate mode                            : Constant
    Stream size                              : 0.00 Byte (0%)
    Server: cloud.mail.ru
    Hidden Content:
    You must reply before you can see the hidden data contained here.
     
  2. Loading...


  3. alex

    alex Well-Known Member

    Joined:
    Nov 21, 2013
    Messages:
    4,506
    Likes Received:
    332
    Thank you
     
  4. MCTR

    MCTR Member

    Joined:
    Feb 23, 2014
    Messages:
    275
    Likes Received:
    22
    thanks
     
  5. viniciusx

    viniciusx Member

    Joined:
    Sep 26, 2016
    Messages:
    58
    Likes Received:
    65
    Thank you
     
  6. Cornelius Lyons

    Cornelius Lyons Member

    Joined:
    Jan 10, 2015
    Messages:
    92
    Likes Received:
    1
  7. xilak

    xilak Member

    Joined:
    May 20, 2014
    Messages:
    675
    Likes Received:
    5
    thank you
     
  8. revilo18

    revilo18 Well-Known Member

    Joined:
    May 26, 2016
    Messages:
    1,255
    Likes Received:
    50
    THANKKK
     
  9. hanshermann

    hanshermann Active Member

    Joined:
    Aug 24, 2016
    Messages:
    1,216
    Likes Received:
    1
    wahts taht
     
  10. Nicolas Martins

    Nicolas Martins Member

    Joined:
    Sep 22, 2014
    Messages:
    255
    Likes Received:
    10
    Thanks