Beyoncé - Best Thing I Never Had (MTV BASE HD-1080i-DD2.0-Olgold)

Discussion in 'MTV BASE' started by DETOX, Mar 11, 2015.

  1. DETOX

    DETOX Well-Known Member V . I . P. Uploader

    Joined:
    Feb 20, 2014
    Messages:
    2,584
    Likes Received:
    12,083

    Beyoncé - Best Thing I Never Had (MTV BASE HD-1080i-DD2.0-Olgold)
    [​IMG]
    General
    ID : 16 (0x10)
    Complete name : Beyoncé - Best Thing I Never Had (MTV BASE HD-1080i-DD2.0-Olgold).ts
    Format : MPEG-TS
    File size : 184 MiB
    Duration : 4mn 9s
    Overall bit rate mode : Variable
    Overall bit rate : 6 195 Kbps

    Video
    ID : 110 (0x6E)
    Menu ID : 8001 (0x1F41)
    Format : AVC
    Format/Info : Advanced Video Codec
    Format profile : [email protected]
    Format settings, CABAC : Yes
    Format settings, ReFrames : 4 frames
    Codec ID : 27
    Duration : 4mn 9s
    Bit rate : 5 630 Kbps
    Width : 1 920 pixels
    Height : 1 080 pixels
    Display aspect ratio : 16:9
    Frame rate : 25.000 fps
    Standard : Component
    Color space : YUV
    Chroma subsampling : 4:2:0
    Bit depth : 8 bits
    Scan type : MBAFF
    Scan order : Top Field First
    Bits/(Pixel*Frame) : 0.109
    Stream size : 168 MiB (91%)
    Color primaries : BT.709
    Transfer characteristics : BT.709
    Matrix coefficients : BT.709
    Color range : Limited

    Audio
    ID : 121 (0x79)
    Menu ID : 8001 (0x1F41)
    Format : AC-3
    Format/Info : Audio Coding 3
    Mode extension : CM (complete main)
    Format settings, Endianness : Big
    Codec ID : 6
    Duration : 4mn 9s
    Bit rate mode : Constant
    Bit rate : 256 Kbps
    Channel(s) : 2 channels
    Channel positions : Front: L R
    Sampling rate : 48.0 KHz
    Bit depth : 16 bits
    Compression mode : Lossy
    Delay relative to video : 20ms
    Stream size : 7.63 MiB (4%)
    Language : English
    Language, more info : Clean effects

    Credits to Olgold

    SERVER: MEGA / PASSWORD: DETOX
    Hidden Content:
    You must reply before you can see the hidden data contained here.
     
    Albano Salinas, CELOBRAZiL and rhea like this.
  2. Loading...


  3. rhea

    rhea Well-Known Member

    Joined:
    Jan 6, 2014
    Messages:
    5,193
    Likes Received:
    250
    thank you so much!
     
  4. Albano Salinas

    Albano Salinas Well-Known Member

    Joined:
    Nov 6, 2014
    Messages:
    445
    Likes Received:
    748
    thanks so much!.-
     
  5. Vinny

    Vinny Active Member

    Joined:
    Dec 26, 2013
    Messages:
    1,720
    Likes Received:
    7
    Thanks! ;D
     
  6. 江雨燃双鱼

    江雨燃双鱼 Active Member

    Joined:
    Apr 5, 2014
    Messages:
    578
    Likes Received:
    34
    Thanks! ;D
     
  7. yhkim

    yhkim Active Member

    Joined:
    Nov 19, 2013
    Messages:
    658
    Likes Received:
    6
    thank you so much
     
  8. Regis

    Regis Member

    Joined:
    Jul 14, 2015
    Messages:
    956
    Likes Received:
    23
    thank you so much
     
  9. Rorschach95

    Rorschach95 Member

    Joined:
    Jun 12, 2016
    Messages:
    126
    Likes Received:
    0
    thank you
     
  10. BinhTVT

    BinhTVT Member

    Joined:
    Jun 30, 2015
    Messages:
    175
    Likes Received:
    3
    thanks
     
  11. revilo18

    revilo18 Well-Known Member

    Joined:
    May 26, 2016
    Messages:
    1,203
    Likes Received:
    50
    THANKKK
     
  12. hanshermann

    hanshermann Active Member

    Joined:
    Aug 24, 2016
    Messages:
    1,210
    Likes Received:
    1
    wahts taht