SDTV Beyoncé - Baby Boy (T4 Concert 04.04)

Discussion in 'SD Live Performances' started by hanshermann, Oct 6, 2017.

  1. hanshermann

    hanshermann Well-Known Member Uploader

    Joined:
    Aug 24, 2016
    Messages:
    7,241
    Likes Received:
    12,533
    [​IMG]

    Beyoncé - Baby Boy (T4 Concert 04.04)

    General
    Complete name : Beyoncé - Baby Boy (T4 Concert 04.04).mpg
    Format : MPEG-PS
    File size : 77.6 MiB
    Duration : 3 min 56 s
    Overall bit rate mode : Constant
    Overall bit rate : 2 756 kb/s
    Writing library : encoded by TMPGEnc (ver. 2.521.58.169)

    Video
    ID : 224 (0xE0)
    Format : MPEG Video
    Format version : Version 2
    Format profile : Main@Main
    Format settings, BVOP : Yes
    Format settings, Matrix : Default
    Format settings, GOP : M=3, N=18
    Duration : 3 min 56 s
    Bit rate mode : Constant
    Bit rate : 2 500 kb/s
    Width : 480 pixels
    Height : 576 pixels
    Display aspect ratio : 4:3
    Frame rate : 25.000 FPS
    Standard : PAL
    Color space : YUV
    Chroma subsampling : 4:2:0
    Bit depth : 8 bits
    Scan type : Progressive
    Compression mode : Lossy
    Bits/(Pixel*Frame) : 0.362
    Time code of first frame : 00:00:00:00
    Time code source : Group of pictures header
    GOP, Open/Closed : Open
    GOP, Open/Closed of first f : Closed
    Stream size : 69.8 MiB (90%)
    Writing library : TMPGEnc 2.521.58.169
    Color primaries : BT.601 PAL
    Transfer characteristics : BT.470 System B, BT.470 System G
    Matrix coefficients : FCC 73.682

    Audio
    ID : 192 (0xC0)
    Format : MPEG Audio
    Format version : Version 1
    Format profile : Layer 2
    Duration : 3 min 56 s
    Bit rate mode : Constant
    Bit rate : 224 kb/s
    Channel(s) : 2 channels
    Sampling rate : 44.1 kHz
    Compression mode : Lossy
    Stream size : 6.31 MiB (8%)

    Hidden Content:
    You must either reply or click 'Like' to see the hidden information contained here.
     
    Last edited: Apr 14, 2018
  2. Loading...


  3. multimediafm

    multimediafm Well-Known Member Donor

    Joined:
    Mar 27, 2014
    Messages:
    13,498
    Likes Received:
    1,063
  4. exterminador

    exterminador Well-Known Member

    Joined:
    Jul 3, 2016
    Messages:
    2,505
    Likes Received:
    212
  5. Saint

    Saint WHY HELLO WORLD?

    Joined:
    Sep 22, 2014
    Messages:
    1,199
    Likes Received:
    130
    Thanks
     
  6. 010juninho

    010juninho Well-Known Member

    Joined:
    Jan 16, 2016
    Messages:
    1,166
    Likes Received:
    52
    Obrigado
     
  7. Maura

    Maura Well-Known Member

    Joined:
    Apr 7, 2014
    Messages:
    3,234
    Likes Received:
    101
    thanks
     
  8. peny20

    peny20 Well-Known Member

    Joined:
    Oct 23, 2013
    Messages:
    2,205
    Likes Received:
    55
    thanx
     
  9. kate bluf

    kate bluf Member

    Joined:
    Oct 31, 2015
    Messages:
    173
    Likes Received:
    7
  10. toonbbv

    toonbbv Well-Known Member

    Joined:
    Dec 11, 2013
    Messages:
    2,276
    Likes Received:
    108
    thank you
     
  11. maxmax

    maxmax Member

    Joined:
    Jan 11, 2018
    Messages:
    165
    Likes Received:
    6
    thANKSS
     
  12. navygirl

    navygirl New Member

    Joined:
    Jul 16, 2018
    Messages:
    13
    Likes Received:
    0
  13. Lisa-20112011

    Lisa-20112011 Active Member

    Joined:
    Jun 25, 2018
    Messages:
    1,042
    Likes Received:
    16
    thank you
     
  14. yoncequality

    yoncequality Member

    Joined:
    Jan 8, 2018
    Messages:
    214
    Likes Received:
    5
    zxfcgvhbnjm
     
  15. miguelmr87

    miguelmr87 Well-Known Member

    Joined:
    Dec 20, 2013
    Messages:
    1,786
    Likes Received:
    335
    do yu have crazy in love on this quality?