Beyoncé - 7/11 (MTV BASE HD-1080i-DD2.0-Olgold)

Discussion in 'MTV BASE' started by DETOX, Mar 11, 2015.

  1. DETOX

    DETOX Well-Known Member V . I . P. Uploader

    Joined:
    Feb 20, 2014
    Messages:
    2,758
    Likes Received:
    13,971

    Beyoncé - 7/11 (MTV BASE HD-1080i-DD2.0-Olgold)
    [​IMG]
    General
    ID : 16 (0x10)
    Complete name : Beyoncé - 7/11 (MTV BASE HD-1080i-DD2.0-Olgold).ts
    Format : MPEG-TS
    File size : 128 MiB
    Duration : 3mn 31s
    Overall bit rate mode : Variable
    Overall bit rate : 5 088 Kbps

    Video
    ID : 110 (0x6E)
    Menu ID : 8001 (0x1F41)
    Format : AVC
    Format/Info : Advanced Video Codec
    Format profile : [email protected]
    Format settings, CABAC : Yes
    Format settings, ReFrames : 4 frames
    Format settings, GOP : M=8, N=24
    Codec ID : 27
    Duration : 3mn 31s
    Bit rate : 4 578 Kbps
    Width : 1 920 pixels
    Height : 1 080 pixels
    Display aspect ratio : 16:9
    Frame rate : 25.000 fps
    Standard : Component
    Color space : YUV
    Chroma subsampling : 4:2:0
    Bit depth : 8 bits
    Scan type : MBAFF
    Scan order : Top Field First
    Bits/(Pixel*Frame) : 0.088
    Stream size : 115 MiB (90%)
    Color primaries : BT.709
    Transfer characteristics : BT.709
    Matrix coefficients : BT.709
    Color range : Limited

    Audio
    ID : 121 (0x79)
    Menu ID : 8001 (0x1F41)
    Format : AC-3
    Format/Info : Audio Coding 3
    Mode extension : CM (complete main)
    Format settings, Endianness : Big
    Codec ID : 6
    Duration : 3mn 31s
    Bit rate mode : Constant
    Bit rate : 256 Kbps
    Channel(s) : 2 channels
    Channel positions : Front: L R
    Sampling rate : 48.0 KHz
    Bit depth : 16 bits
    Compression mode : Lossy
    Delay relative to video : 60ms
    Stream size : 6.45 MiB (5%)
    Language : French
    Language, more info : Clean effects

    Credits to Olgold

    SERVER: MEGA / PASSWORD: DETOX
    Hidden Content:
    You must reply before you can see the hidden data contained here.
     
  2. Loading...


  3. rhea

    rhea Well-Known Member

    Joined:
    Jan 6, 2014
    Messages:
    5,266
    Likes Received:
    253
    thank you so much!
     
  4. lukierrywhere

    lukierrywhere Member

    Joined:
    May 1, 2015
    Messages:
    157
    Likes Received:
    1
    thank you
     
  5. Albano Salinas

    Albano Salinas Well-Known Member

    Joined:
    Nov 6, 2014
    Messages:
    445
    Likes Received:
    783
    thanks so much!.-
     
  6. Dreamer

    Dreamer ♫ It's Britney Bitch ♫ Capper Uploader

    Joined:
    Dec 4, 2014
    Messages:
    2,219
    Likes Received:
    1,937
    Thank you so much! :)
     
  7. ivko02

    ivko02 Member

    Joined:
    Jun 20, 2016
    Messages:
    134
    Likes Received:
    2
    thanks
     
  8. petermmm

    petermmm Member

    Joined:
    Jul 4, 2016
    Messages:
    110
    Likes Received:
    2
    merci
     
  9. revilo18

    revilo18 Well-Known Member

    Joined:
    May 26, 2016
    Messages:
    1,310
    Likes Received:
    56
    THANKKK
     
  10. hanshermann

    hanshermann Active Member

    Joined:
    Aug 24, 2016
    Messages:
    1,364
    Likes Received:
    3
    wahts taht
     
  11. bugmenot

    bugmenot Member

    Joined:
    Nov 17, 2016
    Messages:
    265
    Likes Received:
    5
    7 a tnax
     
  12. RE4PER

    RE4PER Member

    Joined:
    Dec 23, 2016
    Messages:
    87
    Likes Received:
    0