Becky G - Lovin' So Hard (Multishow.HD.1080i.DD5.1).-Crusha

Discussion in 'MULTISHOW HD' started by Crusha, May 9, 2015.

  1. Crusha

    Crusha Well-Known Member Capper

    Joined:
    Oct 15, 2014
    Messages:
    2,350
    Likes Received:
    2,136
    [​IMG]

    General
    ID : 1 (0x1)
    Complete name : C:\Users\SONGOKU\Videos\Becky G - Lovin' So Hard (Multishow.HD.1080i.DD5.1).-Crusha.ts
    Format : MPEG-TS
    File size : 74.9 MiB
    Duration : 2mn 31s
    Overall bit rate mode : Variable
    Overall bit rate : 4 136 Kbps

    Video
    ID : 2593 (0xA21)
    Menu ID : 2542 (0x9EE)
    Format : AVC
    Format/Info : Advanced Video Codec
    Format profile : [email protected]
    Format settings, CABAC : Yes
    Format settings, ReFrames : 4 frames
    Codec ID : 27
    Duration : 2mn 31s
    Bit rate : 3 544 Kbps
    Width : 1 920 pixels
    Height : 1 080 pixels
    Display aspect ratio : 16:9
    Frame rate : 29.970 fps
    Standard : Component
    Color space : YUV
    Chroma subsampling : 4:2:0
    Bit depth : 8 bits
    Scan type : MBAFF
    Scan order : Top Field First
    Bits/(Pixel*Frame) : 0.057
    Stream size : 64.1 MiB (86%)
    Color primaries : BT.709
    Transfer characteristics : BT.709
    Matrix coefficients : BT.709
    Color range : Limited

    Audio
    ID : 3593 (0xE09)
    Menu ID : 2542 (0x9EE)
    Format : AC-3
    Format/Info : Audio Coding 3
    Mode extension : CM (complete main)
    Format settings, Endianness : Big
    Codec ID : 6
    Duration : 2mn 31s
    Bit rate mode : Constant
    Bit rate : 384 Kbps
    Channel(s) : 6 channels
    Channel positions : Front: L C R, Side: L R, LFE
    Sampling rate : 48.0 KHz
    Bit depth : 16 bits
    Compression mode : Lossy
    Stream size : 6.95 MiB (9%)
    Language : English

    Link:
    Hidden Content:
    You must either reply or click 'Like' to see the hidden information contained here.

    Password:
    crusha

    Cap by Me
     
    Last edited: May 11, 2015
    Vergamin, rhea and 777josem like this.
  2. 777josem

    777josem Well-Known Member Uploader

    Joined:
    Sep 1, 2014
    Messages:
    2,426
    Likes Received:
    1,296
    Thank you! I recently learned that the original video is 4:10 :)
     
    Last edited: May 11, 2015
  3. rhea

    rhea Well-Known Member

    Joined:
    Jan 6, 2014
    Messages:
    5,266
    Likes Received:
    253
    thank you so much! :)
     
  4. danicoteca

    danicoteca Member

    Joined:
    Sep 10, 2016
    Messages:
    159
    Likes Received:
    17