WEB-RiP Bebe Rexha - Last Hurrah (Vertical Video) [YOUTUBE VP9 OPUS 1080p-Hossein Enr7que]

Discussion in 'YOUTUBE' started by Hossein Enr7que, Apr 19, 2019.

  1. Hossein Enr7que

    Hossein Enr7que Enriquette . ZQUAD . XO V . I . P. Uploader

    Joined:
    May 13, 2016
    Messages:
    1,620
    Likes Received:
    7,639
    [​IMG]
    Code:
    General
    Unique ID                                : 16922841742516532681874354542405017149 (0xCBB38841838C591146BA0FF0550DE3D)
    Complete name                            : C:\Users\Hossein\Downloads\Video\Bebe Rexha - Last Hurrah (Vertical Video) [YOUTUBE VP9 OPUS 1080p-Hossein Enr7que].mkv
    Format                                   : Matroska
    Format version                           : Version 4
    File size                                : 68.8 MiB
    Duration                                 : 2 min 32 s
    Overall bit rate                         : 3 786 kb/s
    Encoded date                             : UTC 2019-04-19 05:05:57
    Writing application                      : mkvmerge v29.0.0 ('Like It Or Not') 64-bit
    Writing library                          : libebml v1.3.6 + libmatroska v1.4.9 / IDMmkvlib0.1
    Language                                 : und
    
    Video
    ID                                       : 1
    Format                                   : VP9
    Codec ID                                 : V_VP9
    Duration                                 : 2 min 32 s
    Bit rate                                 : 3 656 kb/s
    Width                                    : 1 080 pixels
    Height                                   : 1 920 pixels
    Display aspect ratio                     : 0.563
    Frame rate mode                          : Constant
    Frame rate                               : 23.976 (23976/1000) FPS
    Bits/(Pixel*Frame)                       : 0.074
    Stream size                              : 66.4 MiB (97%)
    Default                                  : Yes
    Forced                                   : No
    
    Audio
    ID                                       : 2
    Format                                   : Opus
    Codec ID                                 : A_OPUS
    Duration                                 : 2 min 32 s
    Bit rate                                 : 129 kb/s
    Channel(s)                               : 2 channels
    Channel layout                           : L R
    Sampling rate                            : 48.0 kHz
    Frame rate                               : 50.000 FPS (960 SPF)
    Compression mode                         : Lossy
    Stream size                              : 2.35 MiB (3%)
    Default                                  : Yes
    Forced                                   : No
    Server: MEGA
    Hidden Content:
    You must either reply or click 'Like' to see the hidden information contained here.
     
  2. Loading...


  3. Aleejoon

    Aleejoon Alee Joon

    Joined:
    Feb 27, 2019
    Messages:
    276
    Likes Received:
    19
    Mercy love ♥️
     
  4. 3veronicas

    3veronicas Well-Known Member

    Joined:
    Aug 26, 2016
    Messages:
    2,741
    Likes Received:
    167
    Thanks!
     
  5. BetaKsi

    BetaKsi Well-Known Member

    Joined:
    Oct 18, 2015
    Messages:
    2,917
    Likes Received:
    709
    Thank you))
     
  6. GABSEDP

    GABSEDP @gabsedp

    Joined:
    Apr 16, 2014
    Messages:
    1,216
    Likes Received:
    201
    THANKS
     
  7. bigray72

    bigray72 Member

    Joined:
    Jun 30, 2018
    Messages:
    336
    Likes Received:
    24
    thanks
     
  8. tn5656

    tn5656 Well-Known Member

    Joined:
    Jan 20, 2017
    Messages:
    5,765
    Likes Received:
    243
    Thank you !!
     
  9. punisherr

    punisherr Member

    Joined:
    Jan 15, 2018
    Messages:
    404
    Likes Received:
    18
    thankss
     
  10. bacteng

    bacteng Active Member

    Joined:
    Feb 19, 2017
    Messages:
    897
    Likes Received:
    53
    thanks
     
  11. silverwing13

    silverwing13 Member

    Joined:
    Jul 1, 2014
    Messages:
    127
    Likes Received:
    2
    Thank you
     
  12. GABSEDP

    GABSEDP @gabsedp

    Joined:
    Apr 16, 2014
    Messages:
    1,216
    Likes Received:
    201
    This file does no work on my TV =/
     
  13. fap-feed

    fap-feed Active Member

    Joined:
    Jun 5, 2018
    Messages:
    175
    Likes Received:
    71
    thanks