Bad Wolves - Zombie | (MCM Top-HDTV-1080i-DD2.0-IboYLDz)-HDMania

Discussion in 'MCM & MCM Top HD' started by By.YLDz, Feb 26, 2019.

  1. By.YLDz

    By.YLDz Hayley Williams Fan :) Capper

    Joined:
    Oct 7, 2013
    Messages:
    455
    Likes Received:
    5,091
    CappeD IboYLDz

    [​IMG] [​IMG] [​IMG] [​IMG] [​IMG] [​IMG] [​IMG] [​IMG]

    Format : MPEG-TS
    File size : 123 MiB
    Duration : 4 min 24 s
    Overall bit rate mode : Variable
    Overall bit rate : 3 895 kb/s

    Video
    ID : 1310 (0x51E)
    Menu ID : 8713 (0x2209)
    Format : AVC
    Format/Info : Advanced Video Codec
    Format profile : High@L4
    Format settings : CABAC / 4 Ref Frames
    Format settings, CABAC : Yes
    Format settings, ReFrames : 4 frames
    Format settings, GOP : M=8, N=24
    Codec ID : 27
    Duration : 4 min 24 s
    Bit rate : 3 508 kb/s
    Width : 1 920 pixels
    Height : 1 080 pixels
    Display aspect ratio : 16:9
    Frame rate : 25.000 FPS
    Standard : Component
    Color space : YUV
    Chroma subsampling : 4:2:0
    Bit depth : 8 bits
    Scan type : MBAFF
    Scan type, store method : Interleaved fields
    Scan order : Top Field First
    Bits/(Pixel*Frame) : 0.068
    Stream size : 111 MiB (90%)
    Color range : Limited
    Color primaries : BT.709
    Transfer characteristics : BT.709
    Matrix coefficients : BT.709

    Audio
    ID : 1321 (0x529)
    Menu ID : 8713 (0x2209)
    Format : AC-3
    Format/Info : Audio Coding 3
    Commercial name : Dolby Digital
    Codec ID : 6
    Duration : 4 min 24 s
    Bit rate mode : Constant
    Bit rate : 192 kb/s
    Channel(s) : 2 channels
    Channel layout : L R
    Sampling rate : 48.0 kHz
    Frame rate : 31.250 FPS (1536 SPF)
    Bit depth : 16 bits
    Compression mode : Lossy
    Delay relative to video : -80 ms
    Stream size : 6.05 MiB (5%)
    Language : French
    Service kind : Complete Main


    Hidden Content:
    You must either reply or click 'Like' to see the hidden information contained here.
    Rar Pass: RIP.Dolores
     
    Zatimi, rhea and CELOBRAZiL like this.
  2. CELOBRAZiL

    CELOBRAZiL Well-Known Member Capper V . I . P. Donor

    Joined:
    Oct 2, 2013
    Messages:
    7,024
    Likes Received:
    22,875
    Thanks! :)
     
  3. rhea

    rhea Well-Known Member

    Joined:
    Jan 6, 2014
    Messages:
    9,368
    Likes Received:
    1,497
    thank you so much