Backstreet Boys - Shape of My Heart (UPSCALED-REMASTERED-1080p-mAz)

Discussion in 'Music Videos' started by RuffBat, Apr 1, 2018.

  1. RuffBat

    RuffBat Maz

    Joined:
    Jul 3, 2017
    Messages:
    231
    Likes Received:
    32
    Source:
    Backstreet Boys ‎– The Greatest Video Hits - Chapter One [DVD5]

    Code:
    General
    
    Complete name               : I:\Music Videos\Backstreet Boys\somh_up.mp4
    Format                      : MPEG-4
    Format profile              : Base Media / Version 2
    Codec ID                    : mp42 (mp42/mp41)
    File size                   : 1.07 GiB
    Duration                    : 3 min 50 s
    Overall bit rate mode       : Variable
    Overall bit rate            : 40.0 Mb/s
    Movie name                  : Shape of My Heart
    Album                       : Black & Blue
    Album/Performer             : Backstreet Boys
    Performer                   : Backstreet Boys
    Original/Performer          : Backstreet Boys
    Composer                    : Rami, Lisa Miskovsky, Max Martin
    Genre                       : Pop
    ContentType                 : Movie
    Recorded date               : 2000
    Encoded date                : UTC 2018-04-01 09:38:03
    Tagged date                 : UTC 2018-04-01 09:39:41
    Copyright                   : ℗ 2000 Zomba Recording LLC
    Cover                       : Yes
    TIM                         : 00:00:00:00
    TSC                         : 24
    TSZ                         : 1
    lable                      : Jive Records
    ratio                       : (Binary)
    Video
    ID                          : 1
    Format                      : AVC
    Format/Info                 : Advanced Video Codec
    Format profile              : Main@L4.1
    Format settings             : CABAC / 4 Ref Frames
    Format settings, CABAC      : Yes
    Format settings, ReFrames   : 4 frames
    Codec ID                    : avc1
    Codec ID/Info               : Advanced Video Coding
    Duration                    : 3 min 50 s
    Bit rate                    : 39.6 Mb/s
    Width                       : 1 920 pixels
    Height                      : 1 080 pixels
    Display aspect ratio        : 16:9
    Frame rate mode             : Constant
    Frame rate                  : 24.000 FPS
    Color space                 : YUV
    Chroma subsampling          : 4:2:0
    Bit depth                   : 8 bits
    Scan type                   : Progressive
    Bits/(Pixel*Frame)          : 0.796
    Stream size                 : 1.06 GiB (99%)
    Language                    : English
    Encoded date                : UTC 2018-04-01 09:38:03
    Tagged date                 : UTC 2018-04-01 09:38:03
    Color range                 : Limited
    Color primaries             : BT.709
    Transfer characteristics    : BT.709
    Matrix coefficients         : BT.709
    
    Audio
    ID                          : 2
    Format                      : AAC
    Format/Info                 : Advanced Audio Codec
    Format profile              : LC
    Codec ID                    : mp4a-40-2
    Duration                    : 3 min 50 s
    Source duration             : 3 min 50 s
    Bit rate mode               : Variable
    Bit rate                    : 317 kb/s
    Maximum bit rate            : 368 kb/s
    Channel(s)                  : 2 channels
    Channel positions           : Front: L R
    Sampling rate               : 48.0 kHz
    Frame rate                  : 46.875 FPS (1024 SPF)
    Compression mode            : Lossy
    Stream size                 : 8.73 MiB (1%)
    Source stream size          : 8.73 MiB (1%)
    Language                    : English
    Encoded date                : UTC 2018-04-01 09:38:03
    Tagged date                 : UTC 2018-04-01 09:38:03

    [​IMG]

    [​IMG]

    [​IMG]

    [​IMG]

    [​IMG]

    [​IMG]

    Hidden Content:
    You must reply before you can see the hidden data contained here.
    Hidden Content:
    You must reply before you can see the hidden data contained here.
     
    anhhai84, TGO, Pris36 and 8 others like this.
  2. Loading...


  3. jb13

    jb13 Active Member

    Joined:
    Oct 24, 2017
    Messages:
    693
    Likes Received:
    40
    gracias
     
  4. Sanjukta

    Sanjukta Active Member

    Joined:
    Aug 28, 2017
    Messages:
    232
    Likes Received:
    37
    Thank you very much for this awesome job & sharing. :super::love:
     
  5. Tiago

    Tiago Well-Known Member

    Joined:
    Dec 7, 2013
    Messages:
    2,782
    Likes Received:
    133
    thanks
     
  6. BetaKsi

    BetaKsi Well-Known Member

    Joined:
    Oct 18, 2015
    Messages:
    2,816
    Likes Received:
    686
    Thank you))
     
  7. mat2103

    mat2103 Active Member

    Joined:
    Dec 6, 2016
    Messages:
    894
    Likes Received:
    36
    Thank you :) :)
     
  8. quake2

    quake2 Well-Known Member

    Joined:
    Oct 11, 2014
    Messages:
    1,986
    Likes Received:
    150
    thanks
     
  9. tn5656

    tn5656 Well-Known Member

    Joined:
    Jan 20, 2017
    Messages:
    5,343
    Likes Received:
    211
    thanks a lot
     
  10. Sergiodegros

    Sergiodegros Well-Known Member

    Joined:
    Mar 21, 2017
    Messages:
    1,158
    Likes Received:
    60
    thanks a lot
     
  11. shuiyaojing

    shuiyaojing Member

    Joined:
    Jan 25, 2018
    Messages:
    283
    Likes Received:
    6
  12. f.cull91

    f.cull91 Active Member

    Joined:
    Sep 19, 2017
    Messages:
    845
    Likes Received:
    59
    Thankyou!
     
  13. toonbbv

    toonbbv Well-Known Member

    Joined:
    Dec 11, 2013
    Messages:
    2,382
    Likes Received:
    121
    thank you
     
  14. logrono

    logrono Well-Known Member V . I . P.

    Joined:
    Mar 8, 2017
    Messages:
    2,368
    Likes Received:
    3,143
    thanks
     
  15. marco25

    marco25 Well-Known Member

    Joined:
    Oct 5, 2016
    Messages:
    1,780
    Likes Received:
    1,112
    thanks
     
  16. orionN

    orionN Well-Known Member

    Joined:
    Jan 26, 2018
    Messages:
    1,127
    Likes Received:
    58
    thankssssss
     
  17. ethan03

    ethan03 Active Member

    Joined:
    Dec 9, 2016
    Messages:
    287
    Likes Received:
    27
    Thanks
     
  18. coronaguy7891

    coronaguy7891 Active Member

    Joined:
    Jul 4, 2016
    Messages:
    601
    Likes Received:
    65
    Why thank you, great job <3
     
  19. David96

    David96 Member

    Joined:
    Feb 9, 2018
    Messages:
    401
    Likes Received:
    4
    Thanks
     
  20. dinhotwain

    dinhotwain Well-Known Member

    Joined:
    Jan 1, 2015
    Messages:
    1,731
    Likes Received:
    175
  21. rafutt

    rafutt New Member

    Joined:
    Dec 14, 2016
    Messages:
    21
    Likes Received:
    0
    Great Job