MASTER Backstreet Boys - Shape Of My Heart (Black & White Ver.) (Master 480p)

Discussion in 'MASTER & MASTER RIP' started by Rubn4, Apr 15, 2019 at 4:48 AM.

  1. Rubn4

    Rubn4 Well-Known Member

    Joined:
    Oct 30, 2016
    Messages:
    855
    Likes Received:
    334
    [​IMG]


    Code:
    General
    Complete name                  : D:\UltraStar Proyect\Masters\Backstreet Boys - Shape Of My Heart.mov
    Format                         : QuickTime
    Format/Info                    : Original Apple specifications
    File size                      : 445 MiB
    Duration                       : 3 min 48 s
    Overall bit rate               : 16.4 Mb/s
    Encoded date                   : UTC 2011-08-26 19:32:06
    Tagged date                    : UTC 2011-08-26 19:33:35
    Writing library                : Apple QuickTime
    
    Video
    ID                             : 1
    Format                         : AVC
    Format/Info                    : Advanced Video Codec
    Format profile                 : Baseline@L4.1
    Format settings, CABAC         : No
    Format settings, RefFrames     : 2 frames
    Codec ID                       : avc1
    Codec ID/Info                  : Advanced Video Coding
    Duration                       : 3 min 48 s
    Bit rate                       : 14.8 Mb/s
    Width                          : 720 pixels
    Height                         : 480 pixels
    Display aspect ratio           : 3:2
    Frame rate mode                : Constant
    Frame rate                     : 29.970 (29970/1000) FPS
    Standard                       : NTSC
    Color space                    : YUV
    Chroma subsampling             : 4:2:0
    Bit depth                      : 8 bits
    Scan type                      : Progressive
    Bits/(Pixel*Frame)             : 1.431
    Stream size                    : 403 MiB (91%)
    Language                       : English
    Encoded date                   : UTC 2011-08-26 19:32:06
    Tagged date                    : UTC 2011-08-26 19:33:35
    Color range                    : Limited
    Color primaries                : BT.601 NTSC
    Transfer characteristics       : BT.709
    Matrix coefficients            : BT.601
    
    Audio
    ID                             : 2
    Format                         : PCM
    Format settings, Endianness    : Big
    Format settings, Sign          : Signed
    Codec ID                       : twos
    Duration                       : 3 min 48 s
    Bit rate mode                  : Constant
    Bit rate                       : 1 536 kb/s
    Channel(s)                     : 2 channels
    Sampling rate                  : 48.0 kHz
    Bit depth                      : 16 bits
    Stream size                    : 41.8 MiB (9%)
    Language                       : English
    Encoded date                   : UTC 2011-08-26 19:32:06
    Tagged date                    : UTC 2011-08-26 19:33:35

    Hidden Content:
    You must reply before you can see the hidden data contained here.
     
    tf135, Dave and ianarturis like this.
  2. Loading...


  3. ductamnd

    ductamnd Member

    Joined:
    Jan 26, 2016
    Messages:
    180
    Likes Received:
    4
  4. Jorge Barrionuevo

    Jorge Barrionuevo Well-Known Member

    Joined:
    Jun 9, 2015
    Messages:
    1,821
    Likes Received:
    868
  5. yanjamacaru

    yanjamacaru Well-Known Member

    Joined:
    Dec 21, 2018
    Messages:
    1,282
    Likes Received:
    29
    thanks
     
  6. Dave

    Dave Well-Known Member

    Joined:
    Jun 2, 2015
    Messages:
    2,104
    Likes Received:
    1,213
  7. GalaxyNight7

    GalaxyNight7 New Member

    Joined:
    Feb 25, 2019
    Messages:
    22
    Likes Received:
    2
  8. luke72

    luke72 Active Member

    Joined:
    Dec 31, 2014
    Messages:
    723
    Likes Received:
    229
  9. BetaKsi

    BetaKsi Well-Known Member

    Joined:
    Oct 18, 2015
    Messages:
    2,616
    Likes Received:
    657
  10. rober31

    rober31 Active Member

    Joined:
    Jun 2, 2017
    Messages:
    609
    Likes Received:
    74
  11. Tiago

    Tiago Well-Known Member

    Joined:
    Dec 7, 2013
    Messages:
    2,673
    Likes Received:
    126
  12. shuiyaojing

    shuiyaojing Member

    Joined:
    Jan 25, 2018
    Messages:
    264
    Likes Received:
    6
  13. tf135

    tf135 Well-Known Member

    Joined:
    Nov 14, 2014
    Messages:
    4,031
    Likes Received:
    221
  14. Jhonchaina23

    Jhonchaina23 Well-Known Member

    Joined:
    Nov 2, 2016
    Messages:
    611
    Likes Received:
    352
  15. MRUNKWN

    MRUNKWN Member

    Joined:
    Wednesday
    Messages:
    87
    Likes Received:
    0
  16. RuffBat

    RuffBat Maz

    Joined:
    Jul 3, 2017
    Messages:
    207
    Likes Received:
    30
    thanks a ton!
     
  17. louissgd

    louissgd New Member

    Joined:
    Apr 5, 2019
    Messages:
    7
    Likes Received:
    0