Backstreet Boys - Everybody (MTVIDOL-1080i-DD2.0-Djodjara)-HDMania

Discussion in 'MTV IDOL' started by Djodjara, May 26, 2015.

  1. Djodjara

    Djodjara Gwen Fan Capper

    Joined:
    Sep 6, 2014
    Messages:
    888
    Likes Received:
    1,655
    Backstreet Boys - Everybody (MTV Idol-1080i-Djodjara)-HDMania

    [​IMG]
    [​IMG]

    General:
    ID : 1 (0x1)
    Format : MPEG-TS
    File size : 139 MiB
    Duration : 3mn 42s
    Overall bit rate mode : Variable
    Overall bit rate : 5 218 Kbps

    Video:
    ID : 310 (0x136)
    Menu ID : 1 (0x1)
    Format : AVC
    Format/Info : Advanced Video Codec
    Format profile : High@L4.0
    Format settings, CABAC : Yes
    Format settings, ReFrames : 4 frames
    Codec ID : 27
    Duration : 3mn 42s
    Bit rate : 4 766 Kbps
    Width : 1 920 pixels
    Height : 1 080 pixels
    Display aspect ratio : 16:9
    Frame rate : 25.000 fps
    Standard : Component
    Color space : YUV
    Chroma subsampling : 4:2:0
    Bit depth : 8 bits
    Scan type : MBAFF
    Scan order : Top Field First
    Bits/(Pixel*Frame) : 0.092
    Stream size : 127 MiB (91%)
    Color primaries : BT.709
    Transfer characteristics : BT.709
    Matrix coefficients : BT.709
    Color range : Limited

    Audio:
    ID : 321 (0x141)
    Menu ID : 1 (0x1)
    Format : AC-3
    Format/Info : Audio Coding 3
    Mode extension : CM (complete main)
    Format settings, Endianness : Big
    Codec ID : 6
    Duration : 3mn 42s
    Bit rate mode : Constant
    Bit rate : 192 Kbps
    Channel(s) : 2 channels
    Channel positions : Front: L R
    Sampling rate : 48.0 KHz
    Bit depth : 16 bits
    Compression mode : Lossy
    Stream size : 5.10 MiB (4%)
    Language : French

    Hidden Content:
    You must reply before you can see the hidden data contained here.
     
    pancho1234, rvden, Britney569 and 4 others like this.
  2. Loading...


  3. tsm897

    tsm897 Member

    Joined:
    Apr 16, 2014
    Messages:
    144
    Likes Received:
    5
    thank you
     
  4. 777josem

    777josem ProRes 1080p LPCM

    Joined:
    Sep 1, 2014
    Messages:
    3,737
    Likes Received:
    3,242
    :happy:Thank you so much!
     
  5. Dreamer

    Dreamer Lana Del Rey ♥ Halsey ♥ Iggy Azalea Capper V . I . P. Uploader

    Joined:
    Dec 4, 2014
    Messages:
    3,012
    Likes Received:
    5,302
    Thank you
     
  6. rhea

    rhea Well-Known Member

    Joined:
    Jan 6, 2014
    Messages:
    7,550
    Likes Received:
    903
    thank you so much!
     
  7. Crusha

    Crusha Well-Known Member Capper V . I . P.

    Joined:
    Oct 15, 2014
    Messages:
    2,358
    Likes Received:
    2,780
    thank you :)
     
  8. talata

    talata Member

    Joined:
    Nov 14, 2013
    Messages:
    275
    Likes Received:
    7
    Thank u sooooo much ... :)
     
  9. Zatimi

    Zatimi Active Member

    Joined:
    Aug 27, 2014
    Messages:
    814
    Likes Received:
    174
    thanks a million
     
  10. Emazing

    Emazing Member

    Joined:
    Nov 6, 2013
    Messages:
    48
    Likes Received:
    0
    thanks cappers
     
  11. wwepan

    wwepan Member

    Joined:
    Oct 21, 2015
    Messages:
    39
    Likes Received:
    0
    Thank You
     
  12. nolynexor88

    nolynexor88 Well-Known Member

    Joined:
    Sep 29, 2015
    Messages:
    1,362
    Likes Received:
    93
  13. Flaxdevil

    Flaxdevil Member

    Joined:
    May 25, 2014
    Messages:
    285
    Likes Received:
    12
    gracias
     
  14. Snorom6

    Snorom6 Well-Known Member V . I . P. Uploader

    Joined:
    Dec 17, 2015
    Messages:
    4,248
    Likes Received:
    5,631
  15. Dima24684

    Dima24684 Member

    Joined:
    Dec 20, 2015
    Messages:
    252
    Likes Received:
    9
  16. williamcaracas

    williamcaracas Member

    Joined:
    Nov 29, 2013
    Messages:
    173
    Likes Received:
    2
  17. nathancorsini

    nathancorsini Well-Known Member

    Joined:
    Jan 19, 2016
    Messages:
    286
    Likes Received:
    278
    Thank you
     
  18. vvhd

    vvhd Member

    Joined:
    Dec 19, 2015
    Messages:
    167
    Likes Received:
    8
    thank you
     
  19. TrendMusic

    TrendMusic Well-Known Member

    Joined:
    Oct 7, 2013
    Messages:
    1,553
    Likes Received:
    127
  20. nodoubtem

    nodoubtem New Member

    Joined:
    Feb 19, 2016
    Messages:
    27
    Likes Received:
    0
    thank you!
     
  21. Britney569

    Britney569 Member

    Joined:
    Jan 31, 2015
    Messages:
    52
    Likes Received:
    3