Backstreet Boys - As Long As You Love Me (MTVIdol-1080i-DD2.0)-Olgold

Discussion in 'MTV IDOL' started by Olgold, Apr 14, 2017.

  1. Olgold

    Olgold Well-Known Member Capper

    Joined:
    Aug 19, 2015
    Messages:
    436
    Likes Received:
    1,814
    Backstreet Boys - As Long As You Love Me
    [​IMG]
    General
    Format : MPEG-TS
    File size : 168 MiB
    Duration : 3 min 35 s
    Overall bit rate mode : Variable
    Overall bit rate : 6 535 kb/s

    Video
    Format : AVC
    Format/Info : Advanced Video Codec
    Format profile : High@L4
    Format settings, CABAC : Yes
    Format settings, ReFrames : 4 frames
    Duration : 3 min 35 s
    Bit rate : 6 018 kb/s
    Width : 1 920 pixels
    Height : 1 080 pixels
    Display aspect ratio : 16:9
    Frame rate : 25.000 FPS
    Standard : Component
    Color space : YUV
    Chroma subsampling : 4:2:0
    Bit depth : 8 bits
    Scan type : MBAFF
    Scan type, store method : Interleaved fields
    Scan order : Top Field First
    Bits/(Pixel*Frame) : 0.116
    Stream size : 155 MiB (92%)

    Audio
    Format : AC-3
    Format/Info : Audio Coding 3
    Mode extension : CM (complete main)
    Format settings, Endianness : Big
    Duration : 3 min 35 s
    Bit rate mode : Constant
    Bit rate : 192 kb/s
    Channel(s) : 2 channels
    Channel positions : Front: L R
    Sampling rate : 48.0 kHz
    Frame rate : 31.250 FPS (1536 spf)
    Compression mode : Lossy
    Delay relative to video : -20 ms
    Stream size : 4.94 MiB (3%)
    Password: Olgold

    Hidden Content:
    You must reply before you can see the hidden data contained here.
     
    tsm897, snake1, rhea and 3 others like this.
  2. Loading...


  3. Zatimi

    Zatimi Active Member

    Joined:
    Aug 27, 2014
    Messages:
    907
    Likes Received:
    242
    Thanks a million for this
     
  4. 777josem

    777josem ProRes 1080p LPCM

    Joined:
    Sep 1, 2014
    Messages:
    3,787
    Likes Received:
    3,590
    Thank you so much!
     
  5. rvden

    rvden Well-Known Member

    Joined:
    Apr 9, 2017
    Messages:
    574
    Likes Received:
    421
    Thank you!
     
  6. Dreamer

    Dreamer Lana Del Rey ♥ Halsey ♥ Iggy Azalea Capper V . I . P. Uploader

    Joined:
    Dec 4, 2014
    Messages:
    3,043
    Likes Received:
    6,129
    Thank you so much!
     
  7. adam136

    adam136 Member

    Joined:
    Jan 8, 2015
    Messages:
    62
    Likes Received:
    3
    Thank You !
     
  8. DiVenturas

    DiVenturas Well-Known Member

    Joined:
    Oct 21, 2015
    Messages:
    2,791
    Likes Received:
    166
  9. CELOBRAZiL

    CELOBRAZiL Well-Known Member Capper V . I . P. Donor

    Joined:
    Oct 2, 2013
    Messages:
    5,647
    Likes Received:
    18,125
    Thank you so much! :)
     
  10. andreb1br

    andreb1br Member

    Joined:
    Feb 19, 2014
    Messages:
    36
    Likes Received:
    4
    thanks for sharing
     
  11. ethan03

    ethan03 Member

    Joined:
    Dec 9, 2016
    Messages:
    237
    Likes Received:
    20
    Thanks
     
  12. music2soul

    music2soul Active Member

    Joined:
    Jun 7, 2016
    Messages:
    613
    Likes Received:
    189
    Thanks.
     
  13. rhea

    rhea Well-Known Member

    Joined:
    Jan 6, 2014
    Messages:
    8,171
    Likes Received:
    1,150
    thanks
     
  14. Jesus Miguel Rivero

    Jesus Miguel Rivero Well-Known Member

    Joined:
    Jul 9, 2015
    Messages:
    1,259
    Likes Received:
    29
  15. Razy

    Razy Member

    Joined:
    May 30, 2015
    Messages:
    156
    Likes Received:
    1
    mercie
     
  16. snake1

    snake1 Member

    Joined:
    Sep 30, 2017
    Messages:
    168
    Likes Received:
    0
    Can you release the download link?
     
  17. brownbradpitt613

    brownbradpitt613 Member

    Joined:
    Sep 3, 2017
    Messages:
    705
    Likes Received:
    25
    thanks for this!
     
  18. RuffBat

    RuffBat Maz

    Joined:
    Jul 3, 2017
    Messages:
    174
    Likes Received:
    20
    thanks
     
  19. wolfonsein

    wolfonsein Member

    Joined:
    Sep 4, 2017
    Messages:
    209
    Likes Received:
    17
    thanksssss
     
  20. tsm897

    tsm897 Member

    Joined:
    Apr 16, 2014
    Messages:
    147
    Likes Received:
    5
    thxxxxxxxxxxx
     
  21. tranmanduy

    tranmanduy Member

    Joined:
    Jan 5, 2017
    Messages:
    200
    Likes Received:
    8