Backstreet Boys - As Long As You Love Me (MTVIdol-1080i-DD2.0)-Olgold

Discussion in 'MTV IDOL' started by Olgold, Apr 14, 2017.

  1. Olgold

    Olgold Well-Known Member Capper

    Joined:
    Aug 19, 2015
    Messages:
    436
    Likes Received:
    1,721
    Backstreet Boys - As Long As You Love Me
    [​IMG]
    General
    Format : MPEG-TS
    File size : 168 MiB
    Duration : 3 min 35 s
    Overall bit rate mode : Variable
    Overall bit rate : 6 535 kb/s

    Video
    Format : AVC
    Format/Info : Advanced Video Codec
    Format profile : [email protected]
    Format settings, CABAC : Yes
    Format settings, ReFrames : 4 frames
    Duration : 3 min 35 s
    Bit rate : 6 018 kb/s
    Width : 1 920 pixels
    Height : 1 080 pixels
    Display aspect ratio : 16:9
    Frame rate : 25.000 FPS
    Standard : Component
    Color space : YUV
    Chroma subsampling : 4:2:0
    Bit depth : 8 bits
    Scan type : MBAFF
    Scan type, store method : Interleaved fields
    Scan order : Top Field First
    Bits/(Pixel*Frame) : 0.116
    Stream size : 155 MiB (92%)

    Audio
    Format : AC-3
    Format/Info : Audio Coding 3
    Mode extension : CM (complete main)
    Format settings, Endianness : Big
    Duration : 3 min 35 s
    Bit rate mode : Constant
    Bit rate : 192 kb/s
    Channel(s) : 2 channels
    Channel positions : Front: L R
    Sampling rate : 48.0 kHz
    Frame rate : 31.250 FPS (1536 spf)
    Compression mode : Lossy
    Delay relative to video : -20 ms
    Stream size : 4.94 MiB (3%)
    Password: Olgold

    Hidden Content:
    You must reply before you can see the hidden data contained here.
     
    tsm897, snake1, rhea and 3 others like this.
  2. Loading...


  3. Zatimi

    Zatimi Active Member

    Joined:
    Aug 27, 2014
    Messages:
    763
    Likes Received:
    146
    Thanks a million for this
     
  4. 777josem

    777josem ProRes 1080p LPCM V . I . P. Uploader

    Joined:
    Sep 1, 2014
    Messages:
    3,737
    Likes Received:
    3,037
    Thank you so much!
     
  5. rvden

    rvden Well-Known Member

    Joined:
    Apr 9, 2017
    Messages:
    432
    Likes Received:
    284
    Thank you!
     
  6. Dreamer

    Dreamer Lana Del Rey ♥ Halsey Capper V . I . P. Uploader

    Joined:
    Dec 4, 2014
    Messages:
    2,903
    Likes Received:
    4,581
    Thank you so much!
     
  7. adam136

    adam136 Member

    Joined:
    Jan 8, 2015
    Messages:
    61
    Likes Received:
    3
    Thank You !
     
  8. DiVenturas

    DiVenturas Well-Known Member

    Joined:
    Oct 21, 2015
    Messages:
    2,737
    Likes Received:
    141
  9. CELOBRAZiL

    CELOBRAZiL Well-Known Member Capper V . I . P. Donor

    Joined:
    Oct 2, 2013
    Messages:
    4,248
    Likes Received:
    13,381
    Thank you so much! :)
     
  10. andreb1br

    andreb1br New Member

    Joined:
    Feb 19, 2014
    Messages:
    28
    Likes Received:
    2
    thanks for sharing
     
  11. ethan03

    ethan03 Member

    Joined:
    Dec 9, 2016
    Messages:
    159
    Likes Received:
    10
    Thanks
     
  12. daring767

    daring767 Member

    Joined:
    Jun 23, 2017
    Messages:
    164
    Likes Received:
    3
    sssss
     
  13. music2soul

    music2soul Active Member

    Joined:
    Jun 7, 2016
    Messages:
    593
    Likes Received:
    145
    Thanks.
     
  14. rhea

    rhea Well-Known Member

    Joined:
    Jan 6, 2014
    Messages:
    7,115
    Likes Received:
    788
    thanks
     
  15. Jesus Miguel Rivero

    Jesus Miguel Rivero Member

    Joined:
    Jul 9, 2015
    Messages:
    288
    Likes Received:
    4
  16. Razy

    Razy Member

    Joined:
    May 30, 2015
    Messages:
    101
    Likes Received:
    1
    mercie
     
  17. snake1

    snake1 Member

    Joined:
    Sep 30, 2017
    Messages:
    148
    Likes Received:
    0
    Can you release the download link?
     
  18. brownbradpitt613

    brownbradpitt613 Member

    Joined:
    Sep 3, 2017
    Messages:
    636
    Likes Received:
    9
    thanks for this!
     
  19. RuffBat

    RuffBat Member

    Joined:
    Jul 3, 2017
    Messages:
    70
    Likes Received:
    1
    thanks
     
  20. wolfonsein

    wolfonsein Member

    Joined:
    Sep 4, 2017
    Messages:
    99
    Likes Received:
    5
    thanksssss
     
  21. tsm897

    tsm897 Member

    Joined:
    Apr 16, 2014
    Messages:
    137
    Likes Received:
    5
    thxxxxxxxxxxx