Babado Novo - Descidinha (MULTISHOW.HD.1080i.DD5.1).-Crusha

Discussion in 'MULTISHOW HD' started by Crusha, Jan 28, 2016.

  1. Crusha

    Crusha Well-Known Member Capper

    Joined:
    Oct 15, 2014
    Messages:
    2,350
    Likes Received:
    2,292
    [​IMG]

    Mediainfo
    General
    ID : 1 (0x1)
    Complete name : Babado Novo - Descidinha (MULTISHOW.HD.1080i.DD5.1).-Crusha.ts
    Format : MPEG-TS
    File size : 94.2 MiB
    Duration : 3mn 0s
    Overall bit rate mode : Variable
    Overall bit rate : 4 371 Kbps

    Video
    ID : 2593 (0xA21)
    Menu ID : 2542 (0x9EE)
    Format : AVC
    Format/Info : Advanced Video Codec
    Format profile : [email protected]
    Format settings, CABAC : Yes
    Format settings, ReFrames : 4 frames
    Codec ID : 27
    Duration : 3mn 0s
    Bit rate : 3 767 Kbps
    Width : 1 920 pixels
    Height : 1 080 pixels
    Display aspect ratio : 16:9
    Frame rate : 29.970 fps
    Standard : Component
    Color space : YUV
    Chroma subsampling : 4:2:0
    Bit depth : 8 bits
    Scan type : MBAFF
    Scan order : Top Field First
    Bits/(Pixel*Frame) : 0.061
    Stream size : 81.2 MiB (86%)
    Color range : Limited
    Color primaries : BT.709
    Transfer characteristics : BT.709
    Matrix coefficients : BT.709

    Audio
    ID : 3593 (0xE09)
    Menu ID : 2542 (0x9EE)
    Format : AC-3
    Format/Info : Audio Coding 3
    Mode extension : CM (complete main)
    Format settings, Endianness : Big
    Codec ID : 6
    Duration : 3mn 0s
    Bit rate mode : Constant
    Bit rate : 384 Kbps
    Channel(s) : 6 channels
    Channel positions : Front: L C R, Side: L R, LFE
    Sampling rate : 48.0 KHz
    Bit depth : 16 bits
    Compression mode : Lossy
    Stream size : 8.27 MiB (9%)
    Language : Portuguese

    Hidden Content:
    You must either reply or click 'Like' to see the hidden information contained here.
    Password:
    crusha
     
  2. Dinho Lima

    Dinho Lima Member

    Joined:
    Nov 30, 2016
    Messages:
    32
    Likes Received:
    1