B.O.B. feat. Hayley Williams - Airplanes (Trace HD-1080i)-Olgold

Discussion in 'TRACE URBAN HD' started by Olgold, Aug 25, 2015.

  1. Olgold

    Olgold Well-Known Member Capper

    Joined:
    Aug 19, 2015
    Messages:
    386
    Likes Received:
    1,312
    [​IMG]
    General
    Format : MPEG-TS
    File size : 164 MiB
    Duration : 2mn 55s
    Overall bit rate mode : Variable
    Overall bit rate : 7 834 Kbps

    Video
    Format : AVC
    Format/Info : Advanced Video Codec
    Format profile : [email protected]
    Format settings, CABAC : Yes
    Format settings, ReFrames : 4 frames
    Duration : 2mn 55s
    Bit rate : 7 253 Kbps
    Width : 1 920 pixels
    Height : 1 080 pixels
    Display aspect ratio : 16:9
    Frame rate : 25.000 fps
    Standard : Component
    Color space : YUV
    Chroma subsampling : 4:2:0
    Bit depth : 8 bits
    Scan type : Interlaced
    Scan order : Top Field First
    Bits/(Pixel*Frame) : 0.140
    Stream size : 152 MiB (93%)
    Color range : Limited

    Audio
    Format : MPEG Audio
    Format version : Version 1
    Format profile : Layer 2
    Duration : 2mn 55s
    Bit rate mode : Constant
    Bit rate : 192 Kbps
    Channel(s) : 2 channels
    Sampling rate : 48.0 KHz
    Compression mode : Lossy
    Delay relative to video : 7ms
    Stream size : 4.02 MiB (2%)
    Language : English
    Language, more info : Clean effects

    Hidden Content:
    You must reply before you can see the hidden data contained here.
     
  2. Loading...


  3. Grailen

    Grailen Well-Known Member

    Joined:
    Oct 8, 2013
    Messages:
    531
    Likes Received:
    470
    thank you
     
  4. rhea

    rhea Well-Known Member

    Joined:
    Jan 6, 2014
    Messages:
    5,300
    Likes Received:
    253
    thank you so much :)
     
  5. Zatimi

    Zatimi Active Member

    Joined:
    Aug 27, 2014
    Messages:
    598
    Likes Received:
    61
    thanks so much
     
  6. Crusha

    Crusha Well-Known Member Capper

    Joined:
    Oct 15, 2014
    Messages:
    2,350
    Likes Received:
    2,139
    thank you
     
  7. Dreamer

    Dreamer ♫ It's Britney Bitch ♫ Capper Uploader

    Joined:
    Dec 4, 2014
    Messages:
    2,230
    Likes Received:
    1,970
    Thank you
     
  8. furkan

    furkan Member

    Joined:
    Oct 9, 2015
    Messages:
    194
    Likes Received:
    3
    thnksy ouuuu
     
  9. limonato

    limonato Member

    Joined:
    Dec 1, 2014
    Messages:
    180
    Likes Received:
    0
    thank you
     
  10. williamcaracas

    williamcaracas Member

    Joined:
    Nov 29, 2013
    Messages:
    153
    Likes Received:
    2
    thank you
     
  11. 1asad1

    1asad1 Member

    Joined:
    Apr 23, 2016
    Messages:
    98
    Likes Received:
    8
    thanku
     
  12. CristianMatias

    CristianMatias Member

    Joined:
    Sep 17, 2016
    Messages:
    541
    Likes Received:
    17
  13. danicoteca

    danicoteca Member

    Joined:
    Sep 10, 2016
    Messages:
    159
    Likes Received:
    17
  14. BinhTVT

    BinhTVT Member

    Joined:
    Jun 30, 2015
    Messages:
    176
    Likes Received:
    3
    thanks
     
  15. CristianMatias

    CristianMatias Member

    Joined:
    Sep 17, 2016
    Messages:
    541
    Likes Received:
    17