Avril Lavigne - When You're Gone (Rage 1080 HDTV)

Discussion in 'ABC HD' started by thankstome, Jan 18, 2015.

  1. thankstome

    thankstome Well-Known Member

    Joined:
    Feb 6, 2014
    Messages:
    832
    Likes Received:
    1,155
    [​IMG]
    [​IMG]
    [​IMG]

    Code:
    Format                                   : Matroska
    Format version                           : Version 2
    File size                                : 186 MiB
    Duration                                 : 3mn 59s
    Overall bit rate                         : 6 516 Kbps
    Encoded date                             : UTC 2009-12-07 03:54:16
    Writing application                      : mkvmerge v2.9.7 ('Tenderness') built on Jul  1 2009 18:43:35
    Writing library                          : libebml v0.7.7 + libmatroska v0.8.1
    
    Video
    ID                                       : 1
    Format                                   : AVC
    Format/Info                              : Advanced Video Codec
    Format profile                           : [email protected]
    Format settings, CABAC                   : Yes
    Format settings, ReFrames                : 4 frames
    Codec ID                                 : V_MPEG4/ISO/AVC
    Duration                                 : 3mn 59s
    Bit rate                                 : 6 144 Kbps
    Width                                    : 1 920 pixels
    Height                                   : 1 080 pixels
    Display aspect ratio                     : 16:9
    Frame rate mode                          : Constant
    Frame rate                               : 29.970 fps
    Color space                              : YUV
    Chroma subsampling                       : 4:2:0
    Bit depth                                : 8 bits
    Scan type                                : Progressive
    Bits/(Pixel*Frame)                       : 0.099
    Stream size                              : 171 MiB (92%)
    Writing library                          : x264 core 68 r1183M f21daff
    Encoding settings                        : cabac=1 / ref=4 / deblock=1:-1:-1 / analyse=0x3:0x113 / me=umh / subme=7 / psy_rd=1.0:0.0 / mixed_ref=1 / me_range=16 / chroma_me=1 / trellis=2 / 8x8dct=1 / cqm=0 / deadzone=21,11 / chroma_qp_offset=-2 / threads=3 / nr=0 / decimate=1 / mbaff=0 / bframes=3 / b_pyramid=0 / b_adapt=2 / b_bias=0 / direct=3 / wpredb=1 / keyint=300 / keyint_min=25 / scenecut=40 / rc=2pass / bitrate=6144 / ratetol=1.0 / qcomp=0.60 / qpmin=10 / qpmax=51 / qpstep=4 / cplxblur=20.0 / qblur=0.5 / vbv_maxrate=50000 / vbv_bufsize=50000 / ip_ratio=1.40 / pb_ratio=1.30 / aq=1:1.00
    Language                                 : English
    Default                                  : Yes
    Forced                                   : No
    
    Audio
    ID                                       : 2
    Format                                   : AC-3
    Format/Info                              : Audio Coding 3
    Mode extension                           : CM (complete main)
    Format settings, Endianness              : Big
    Codec ID                                 : A_AC3
    Duration                                 : 3mn 59s
    Bit rate mode                            : Constant
    Bit rate                                 : 384 Kbps
    Channel(s)                               : 2 channels
    Channel positions                        : Front: L R
    Sampling rate                            : 48.0 KHz
    Bit depth                                : 16 bits
    Compression mode                         : Lossy
    Stream size                              : 10.9 MiB (6%)
    Default                                  : Yes
    Forced                                   : No
    
    Hidden Content:
    You must reply before you can see the hidden data contained here.
    Credit goes to original capper

    This is not my upload
     
    Vjeans and pomodoro_2013 like this.
  2. quake2

    quake2 Well-Known Member

    Joined:
    Oct 11, 2014
    Messages:
    1,036
    Likes Received:
    56
    thanks ok
     
  3. SpyrosMonster

    SpyrosMonster Active Member

    Joined:
    Jan 27, 2014
    Messages:
    728
    Likes Received:
    129
    thank you so much!
     
  4. mike gunen

    mike gunen Active Member

    Joined:
    Nov 9, 2013
    Messages:
    849
    Likes Received:
    25
    thank you
     
  5. zzimorodok

    zzimorodok Member

    Joined:
    May 23, 2014
    Messages:
    145
    Likes Received:
    7
     
  6. alvin

    alvin Member

    Joined:
    May 11, 2014
    Messages:
    283
    Likes Received:
    15
     
  7. mikedreams

    mikedreams Well-Known Member Donor

    Joined:
    Nov 20, 2013
    Messages:
    425
    Likes Received:
    1,710
    Upscale.
     
  8. thankstome

    thankstome Well-Known Member

    Joined:
    Feb 6, 2014
    Messages:
    832
    Likes Received:
    1,155
    Most of old videos on hd channels are upscale on the other hand this video's quality is better than the dvd but of course not as good as today's hd videos
     
  9. adam136

    adam136 Member

    Joined:
    Jan 8, 2015
    Messages:
    59
    Likes Received:
    2
    Thank you
     
  10. MaggieS

    MaggieS Well-Known Member

    Joined:
    Sep 19, 2014
    Messages:
    1,022
    Likes Received:
    48
     
  11. lpplus

    lpplus LP & MET Fan

    Joined:
    Sep 28, 2014
    Messages:
    798
    Likes Received:
    2,952
    Thank You
     
  12. tf135

    tf135 Well-Known Member

    Joined:
    Nov 14, 2014
    Messages:
    2,245
    Likes Received:
    126
    thank you
     
  13. mikedreams

    mikedreams Well-Known Member Donor

    Joined:
    Nov 20, 2013
    Messages:
    425
    Likes Received:
    1,710
    I call BS.

    Of course this video file's quality is not better than the DVD. It's off of TV which is taken from the DVD then broadcast over the airwaves, whereas video from the DVD is a direct transfer. Never mind that this file is an upscale,.whereas the DVD is not. An upscale is just bigger, but never ever better.
     
  14. pomodoro_2013

    pomodoro_2013 Member

    Joined:
    Nov 17, 2013
    Messages:
    349
    Likes Received:
    6
  15. Crusha

    Crusha Well-Known Member Capper V . I . P.

    Joined:
    Oct 15, 2014
    Messages:
    2,355
    Likes Received:
    2,523
    thank you very much
     
  16. Vjeans

    Vjeans Well-Known Member V . I . P.

    Joined:
    May 10, 2014
    Messages:
    1,075
    Likes Received:
    3,415
    Thank you!
     
  17. sagor

    sagor Member

    Joined:
    Mar 24, 2014
    Messages:
    56
    Likes Received:
    1
    thanx man
    ......
     
  18. jurgen

    jurgen New Member

    Joined:
    Jun 24, 2015
    Messages:
    16
    Likes Received:
    0
    Thank you!!!
     
  19. adam dark

    adam dark Video Music Lover <3 V . I . P.

    Joined:
    Dec 5, 2013
    Messages:
    2,601
    Likes Received:
    4,784
    thanks!
     
  20. yangnima

    yangnima New Member

    Joined:
    May 28, 2014
    Messages:
    22
    Likes Received:
    2
    thx 4 sharin !!!!
     
    thankstome likes this.