Avril Lavigne - What the Hell (Master 1080p-Lpcm-Director's Cut-H264)

Discussion in 'MASTER & MASTER RIP' started by vans, Jan 11, 2014.

  1. vans

    vans Well-Known Member

    Joined:
    Dec 14, 2013
    Messages:
    187
    Likes Received:
    943
    [​IMG]
    Code:
    General
    Complete name                            : Avril Lavigne - What the Hell (Lpcm-Director's Cut-H264).mov
    Format                                  : MPEG-4
    Format profile                          : QuickTime
    Codec ID                                : qt 
    File size                                : 795 MiB
    Duration                                : 3mn 45s
    Overall bit rate mode                    : Variable
    Overall bit rate                        : 29.5 Mbps
    Movie name/More                          : Ripped by Feisty2
    Description                              : Ripped by Feisty2
    Encoded date                            : UTC 2012-10-08 07:29:45
    Tagged date                              : UTC 2012-10-08 07:36:34
    Writing library                          : Apple QuickTime 7.7.2
    com.apple.quicktime.player.movie.audio.m : (Binary)
    
    Video
    ID                                      : 1
    Format                                  : AVC
    Format/Info                              : Advanced Video Codec
    Format profile                          : [email protected]
    Format settings, CABAC                  : Yes
    Format settings, ReFrames                : 3 frames
    Codec ID                                : avc1
    Codec ID/Info                            : Advanced Video Coding
    Duration                                : 3mn 45s
    Bit rate mode                            : Variable
    Bit rate                                : 28.0 Mbps
    Maximum bit rate                        : 40.0 Mbps
    Width                                    : 1 920 pixels
    Height                                  : 1 080 pixels
    Display aspect ratio                    : 16:9
    Frame rate mode                          : Constant
    Frame rate                              : 23.976 fps
    Color space                              : YUV
    Chroma subsampling                      : 4:2:0
    Bit depth                                : 8 bits
    Scan type                                : Progressive
    Bits/(Pixel*Frame)                      : 0.563
    Stream size                              : 754 MiB (95%)
    Writing library                          : RGB32 Apple ProRes 4444
    Language                                : English
    Encoded date                            : UTC 2012-10-08 07:29:45
    Tagged date                              : UTC 2012-10-08 07:29:45
    Color primaries                          : BT.709
    Transfer characteristics                : BT.709
    Matrix coefficients                      : BT.709
    
    Audio
    ID                                      : 2
    Format                                  : PCM
    Format settings, Endianness              : Little
    Format settings, Sign                    : Signed
    Codec ID                                : sowt
    Duration                                : 3mn 45s
    Bit rate mode                            : Constant
    Bit rate                                : 1 536 Kbps
    Channel(s)                              : 2 channels
    Channel positions                        : Front: L R
    Sampling rate                            : 48.0 KHz
    Bit depth                                : 16 bits
    Stream size                              : 41.4 MiB (5%)
    Language                                : English
    Encoded date                            : UTC 2012-10-08 07:29:45
    Tagged date                              : UTC 2012-10-08 07:36:34
    
    Hidden Content:
    You must reply before you can see the hidden data contained here.
     
    DiVenturas, Aph3x, wwe and 22 others like this.
  2. Loading...


  3. alex

    alex Well-Known Member

    Joined:
    Nov 21, 2013
    Messages:
    4,522
    Likes Received:
    346
    thanks :love:
     
  4. KallumLavigne

    KallumLavigne Well-Known Member

    Joined:
    Nov 18, 2013
    Messages:
    677
    Likes Received:
    1,219
    thanks :D <3
     
  5. santa321

    santa321 Well-Known Member

    Joined:
    Dec 7, 2013
    Messages:
    1,243
    Likes Received:
    28
    thanks
     
  6. hahahahuf

    hahahahuf Member

    Joined:
    Jan 6, 2014
    Messages:
    23
    Likes Received:
    3
    t
     
  7. mikedreams

    mikedreams Well-Known Member Donor

    Joined:
    Nov 20, 2013
    Messages:
    417
    Likes Received:
    1,448
    OK
     
  8. funhawg

    funhawg Member

    Joined:
    Jan 4, 2014
    Messages:
    176
    Likes Received:
    3
    thanks
     
  9. Attention

    Attention Active Member

    Joined:
    Nov 30, 2013
    Messages:
    564
    Likes Received:
    30
    кaк жe зaeбaлo этo вымoгaтeльcтвo лaйкoв и oтвeтoв. удaлитe нaхуй этoт "thanks" мoд
     
    Lukasz likes this.
  10. xptmxm

    xptmxm Member

    Joined:
    Nov 20, 2013
    Messages:
    283
    Likes Received:
    11
    thanks
     
  11. Mwhaha

    Mwhaha Member

    Joined:
    Nov 17, 2013
    Messages:
    66
    Likes Received:
    0
  12. thankstome

    thankstome Well-Known Member

    Joined:
    Feb 6, 2014
    Messages:
    810
    Likes Received:
    1,020
    thanks a lot
     
  13. lim

    lim Active Member

    Joined:
    Nov 8, 2013
    Messages:
    1,019
    Likes Received:
    14
    thanks
     
  14. SpyrosMonster

    SpyrosMonster Active Member

    Joined:
    Jan 27, 2014
    Messages:
    682
    Likes Received:
    118
    thank you
     
  15. karma_boy

    karma_boy Member

    Joined:
    Feb 12, 2014
    Messages:
    69
    Likes Received:
    2
  16. svno

    svno New Member

    Joined:
    Feb 21, 2014
    Messages:
    5
    Likes Received:
    0
    ooh thanks:victory:
     
  17. reyouda1

    reyouda1 Member

    Joined:
    Feb 10, 2014
    Messages:
    142
    Likes Received:
    11
     
  18. auorine

    auorine Member

    Joined:
    Nov 23, 2013
    Messages:
    52
    Likes Received:
    0
    Thanks!
     
  19. sundayvvvv

    sundayvvvv Member

    Joined:
    Feb 26, 2014
    Messages:
    95
    Likes Received:
    1
  20. ronny941

    ronny941 Member

    Joined:
    Mar 2, 2014
    Messages:
    31
    Likes Received:
    0
    thanks
     
  21. ryualviss

    ryualviss Active Member

    Joined:
    Jan 6, 2014
    Messages:
    151
    Likes Received:
    500
    nice, thanks :greedy: