Avril Lavigne - Sk8ter Boi (VIVAHD-1080i-DD2.0-Djodjara)-HDMania

Discussion in 'VIVA HD' started by Djodjara, Sep 30, 2014.

  1. seregil

    seregil Active Member

    Joined:
    Sep 5, 2014
    Messages:
    317
    Likes Received:
    29
    thanks
     
  2. mewmwe

    mewmwe Active Member

    Joined:
    May 20, 2017
    Messages:
    556
    Likes Received:
    43
    thanks
     
  3. lyana94

    lyana94 Well-Known Member

    Joined:
    Jul 5, 2017
    Messages:
    1,453
    Likes Received:
    50
    th
    anks
     
  4. The-Cat-Whose-Name

    The-Cat-Whose-Name Member

    Joined:
    Aug 3, 2017
    Messages:
    192
    Likes Received:
    10
  5. DeeJuanma

    DeeJuanma Member

    Joined:
    Jul 8, 2017
    Messages:
    175
    Likes Received:
    8
    Gracias !
     
  6. NiceBoy

    NiceBoy Member

    Joined:
    May 20, 2016
    Messages:
    236
    Likes Received:
    5
    Many Thanks
     
  7. brownbradpitt613

    brownbradpitt613 Member

    Joined:
    Sep 3, 2017
    Messages:
    662
    Likes Received:
    10
    great!
     
  8. thiagodevil

    thiagodevil Member

    Joined:
    Jan 10, 2017
    Messages:
    102
    Likes Received:
    4
    thank you
     
  9. seomate38

    seomate38 Member

    Joined:
    Feb 23, 2017
    Messages:
    65
    Likes Received:
    1
    thank you so much
     
  10. chernan

    chernan Member

    Joined:
    Dec 28, 2016
    Messages:
    54
    Likes Received:
    12
    thanks

    Avril Lavigne - Sk8ter Boi (VIVA HD 1080i - Djodjara)

    [​IMG]
    [​IMG]

    General:
    ID : 95 (0x5F)
    Format : MPEG-TS
    File size : 231 MiB
    Duration : 3mn 36s
    Overall bit rate mode : Variable
    Overall bit rate : 8 957 Kbps

    Video:
    ID : 528 (0x210)
    Menu ID : 9067 (0x236B)
    Format : AVC
    Format/Info : Advanced Video Codec
    Format profile : High@L4.0
    Format settings, CABAC : Yes
    Format settings, ReFrames : 3 frames
    Codec ID : 27
    Duration : 3mn 36s
    Bit rate : 8 062 Kbps
    Width : 1 920 pixels
    Height : 1 080 pixels
    Display aspect ratio : 16:9
    Frame rate : 25.000 fps
    Standard : Component
    Color space : YUV
    Chroma subsampling : 4:2:0
    Bit depth : 8 bits
    Scan type : Interlaced
    Bits/(Pixel*Frame) : 0.156
    Stream size : 208 MiB (90%)
    Color primaries : BT.709
    Transfer characteristics : BT.709
    Matrix coefficients : BT.709

    Audio #1:
    ID : 529 (0x211)
    Menu ID : 9067 (0x236B)
    Format : MPEG Audio
    Format version : Version 1
    Format profile : Layer 2
    Codec ID : 4
    Duration : 3mn 36s
    Bit rate mode : Constant
    Bit rate : 256 Kbps
    Channel count : 2 channels
    Sampling rate : 48.0 KHz
    Compression mode : Lossy
    Delay relative to video : 139ms
    Stream size : 6.60 MiB (3%)
    Language : German

    Audio #2:
    ID : 539 (0x21B)
    Menu ID : 9067 (0x236B)
    Format : AC-3
    Format/Info : Audio Coding 3
    Mode extension : HI (hearing impaired)
    Format settings, Endianness : Big
    Codec ID : 6
    Duration : 3mn 36s
    Bit rate mode : Constant
    Bit rate : 192 Kbps
    Channel count : 2 channels
    Channel positions : Front: L R
    Sampling rate : 48.0 KHz
    Bit depth : 16 bits
    Compression mode : Lossy
    Delay relative to video : 47ms
    Stream size : 4.95 MiB (2%)
    Language : German

    ***Hidden content cannot be quoted.***
    [/QUOTE]
     
  11. ildson

    ildson Active Member

    Joined:
    Nov 4, 2017
    Messages:
    424
    Likes Received:
    33
    thanks
     
  12. fatcat

    fatcat Member

    Joined:
    Nov 14, 2016
    Messages:
    43
    Likes Received:
    4