Avril Lavigne - Rock N Roll (MTVLive-1080i-DD5.1)-Olgold

Discussion in 'MTV LIVE HD' started by Olgold, Aug 26, 2015.

  1. Olgold

    Olgold Well-Known Member Capper

    Joined:
    Aug 19, 2015
    Messages:
    436
    Likes Received:
    1,521
    [​IMG]
    General
    Format : MPEG-TS
    File size : 321 MiB
    Duration : 4mn 4s
    Overall bit rate mode : Variable
    Overall bit rate : 11.0 Mbps

    Video
    Format : AVC
    Format/Info : Advanced Video Codec
    Format profile : [email protected]
    Format settings, CABAC : Yes
    Format settings, ReFrames : 4 frames
    Duration : 4mn 4s
    Bit rate : 10.1 Mbps
    Width : 1 920 pixels
    Height : 1 080 pixels
    Display aspect ratio : 16:9
    Frame rate : 25.000 fps
    Color space : YUV
    Chroma subsampling : 4:2:0
    Bit depth : 8 bits
    Scan type : Interlaced
    Scan order : Top Field First
    Bits/(Pixel*Frame) : 0.195
    Stream size : 294 MiB (91%)
    Color range : Limited

    Audio
    Format : AC-3
    Format/Info : Audio Coding 3
    Mode extension : CM (complete main)
    Format settings, Endianness : Big
    Duration : 4mn 4s
    Bit rate mode : Constant
    Bit rate : 384 Kbps
    Channel(s) : 6 channels
    Channel positions : Front: L C R, Side: L R, LFE
    Sampling rate : 48.0 KHz
    Compression mode : Lossy
    Delay relative to video : 83ms
    Stream size : 11.2 MiB (3%)
    Language : English
    Language, more info : Clean effects

    Hidden Content:
    You must reply before you can see the hidden data contained here.
     
    juanlt2045, Vjeans, rhea and 2 others like this.
  2. MaggieS

    MaggieS Active Member

    Joined:
    Sep 19, 2014
    Messages:
    971
    Likes Received:
    39
    COOL:super:TNX:greedy:
     
  3. rhea

    rhea Well-Known Member

    Joined:
    Jan 6, 2014
    Messages:
    5,870
    Likes Received:
    434
    thank you so much :)
     
  4. jayananda

    jayananda Active Member

    Joined:
    Jan 14, 2015
    Messages:
    327
    Likes Received:
    43
    Thank You
     
  5. tonchien.tavie

    tonchien.tavie Well-Known Member

    Joined:
    Sep 10, 2014
    Messages:
    63
    Likes Received:
    376
    Removed
     
    Last edited: Sep 22, 2016
  6. Crusha

    Crusha Well-Known Member Capper

    Joined:
    Oct 15, 2014
    Messages:
    2,350
    Likes Received:
    2,292
    thank you
     
  7. Vjeans

    Vjeans Well-Known Member

    Joined:
    May 10, 2014
    Messages:
    962
    Likes Received:
    3,029
    Thank you!
     
  8. talata

    talata Member

    Joined:
    Nov 14, 2013
    Messages:
    260
    Likes Received:
    6
    Thanks you :)
     
  9. Attention

    Attention Active Member

    Joined:
    Nov 30, 2013
    Messages:
    563
    Likes Received:
    30
    Thank You
     
  10. juanlt2045

    juanlt2045 New Member

    Joined:
    Jan 30, 2016
    Messages:
    5
    Likes Received:
    0
    Thank You
     
  11. hanshermann

    hanshermann Well-Known Member

    Joined:
    Aug 24, 2016
    Messages:
    3,807
    Likes Received:
    29
    wahts taht