Avril Lavigne - I'm With You (MTV.HD.LA.1080i.DD2.0).-Crusha

Discussion in 'MTV HD' started by Crusha, Jun 22, 2016.

  1. Crusha

    Crusha Well-Known Member Capper V . I . P.

    Joined:
    Oct 15, 2014
    Messages:
    2,357
    Likes Received:
    2,523
    [​IMG]

    Mediainfo
    Code:
    General
    ID                             : 1 (0x1)
    Complete name                  : Avril Lavigne - I'm With You (MTV.HD.LA.1080i.DD2.0).-Crusha.ts
    Format                         : MPEG-TS
    File size                      : 139 MiB
    Duration                       : 3mn 44s
    Overall bit rate mode          : Variable
    Overall bit rate               : 5 167 Kbps
    
    Video
    ID                             : 4472 (0x1178)
    Menu ID                        : 1893 (0x765)
    Format                         : AVC
    Format/Info                    : Advanced Video Codec
    Format profile                 : [email protected]
    Format settings, CABAC         : Yes
    Format settings, ReFrames      : 4 frames
    Codec ID                       : 27
    Duration                       : 3mn 44s
    Bit rate                       : 4 524 Kbps
    Width                          : 1 920 pixels
    Height                         : 1 080 pixels
    Display aspect ratio           : 16:9
    Frame rate                     : 29.970 fps
    Color space                    : YUV
    Chroma subsampling             : 4:2:0
    Bit depth                      : 8 bits
    Scan type                      : MBAFF
    Scan order                     : Top Field First
    Bits/(Pixel*Frame)             : 0.073
    Stream size                    : 121 MiB (87%)
    Color range                    : Limited
    Color primaries                : BT.709
    Transfer characteristics       : BT.709
    Matrix coefficients            : BT.709
    
    Audio
    ID                             : 5014 (0x1396)
    Menu ID                        : 1893 (0x765)
    Format                         : AC-3
    Format/Info                    : Audio Coding 3
    Mode extension                 : CM (complete main)
    Format settings, Endianness    : Big
    Codec ID                       : 6
    Duration                       : 3mn 44s
    Bit rate mode                  : Constant
    Bit rate                       : 384 Kbps
    Channel(s)                     : 2 channels
    Channel positions              : Front: L R
    Sampling rate                  : 48.0 KHz
    Bit depth                      : 16 bits
    Compression mode               : Lossy
    Delay relative to video        : -233ms
    Stream size                    : 10.3 MiB (7%)
    Language                       : English
    
    
    Hidden Content:
    You must reply before you can see the hidden data contained here.
    Password: crusha
     
    lyana94, Guga, 777josem and 1 other person like this.
  2. Loading...


  3. Vector09

    Vector09 Well-Known Member

    Joined:
    Feb 16, 2016
    Messages:
    292
    Likes Received:
    553
    thank you
     
    Crusha likes this.
  4. maurohachen

    maurohachen Member

    Joined:
    Feb 24, 2015
    Messages:
    411
    Likes Received:
    19
    crusha i love
     
    Crusha likes this.
  5. rhea

    rhea Well-Known Member

    Joined:
    Jan 6, 2014
    Messages:
    6,660
    Likes Received:
    690
    thank you :)
     
    Crusha likes this.
  6. 777josem

    777josem ProRes 1080p LPCM V . I . P. Uploader

    Joined:
    Sep 1, 2014
    Messages:
    3,590
    Likes Received:
    2,756
    Thank you so much! por favor mas videos viejos amigo! :victory:
     
  7. PedroCorrea

    PedroCorrea Active Member

    Joined:
    Aug 21, 2014
    Messages:
    358
    Likes Received:
    45
  8. rikylouis14

    rikylouis14 Well-Known Member

    Joined:
    Jun 27, 2016
    Messages:
    717
    Likes Received:
    419
    More Please!
     
  9. betoxky

    betoxky Active Member

    Joined:
    Feb 3, 2014
    Messages:
    195
    Likes Received:
    215
    graciasssssss
     
  10. Zatimi

    Zatimi Active Member

    Joined:
    Aug 27, 2014
    Messages:
    720
    Likes Received:
    132
    thanks a million
     
  11. tapions

    tapions Active Member

    Joined:
    Aug 30, 2016
    Messages:
    899
    Likes Received:
    70
    gracias
     
  12. gayway

    gayway Active Member

    Joined:
    Mar 10, 2016
    Messages:
    856
    Likes Received:
    53
    Thank You!
     
  13. joaovitorpf

    joaovitorpf New Member

    Joined:
    Sep 14, 2016
    Messages:
    1
    Likes Received:
    0
    Dear god! Thank you!!!
     
  14. yukides

    yukides Active Member

    Joined:
    Nov 15, 2013
    Messages:
    178
    Likes Received:
    99
    Gracias :D
     
  15. CristianMatias

    CristianMatias HIGH DEFINITION

    Joined:
    Sep 17, 2016
    Messages:
    806
    Likes Received:
    21
    evanescence
     
  16. 010juninho

    010juninho Member

    Joined:
    Jan 16, 2016
    Messages:
    575
    Likes Received:
    12
    Thank you
     
  17. carvalhothi

    carvalhothi Member

    Joined:
    Nov 3, 2016
    Messages:
    203
    Likes Received:
    11
    Why MEGA?
     
  18. rutpun15

    rutpun15 New Member

    Joined:
    Oct 20, 2016
    Messages:
    20
    Likes Received:
    0
    rererereererer
     
  19. hanshermann

    hanshermann Well-Known Member Uploader

    Joined:
    Aug 24, 2016
    Messages:
    4,702
    Likes Received:
    2,449
    wahts taht
     
  20. misscoak

    misscoak Member

    Joined:
    Dec 22, 2016
    Messages:
    606
    Likes Received:
    4
    thanks
     
  21. henryperu77

    henryperu77 Active Member

    Joined:
    Oct 18, 2016
    Messages:
    18
    Likes Received:
    110
    thank you