WEB-RiP Avril Lavigne - I Fell In Love With the Devil (TIDAL 1080p)

Discussion in 'TIDAL' started by The-Cat-Whose-Name, Jul 16, 2019.

  1. The-Cat-Whose-Name

    The-Cat-Whose-Name Active Member

    Joined:
    Aug 3, 2017
    Messages:
    408
    Likes Received:
    174
    [​IMG]
    [​IMG]
    [​IMG]
    [​IMG]
    General
    Complete name : C:\Users\Koteika\Videos\Avril Lavigne - I Fell In Love With the Devil (TIDAL 1080p).mp4
    Format : MPEG-4
    Format profile : Base Media / Version 2
    Codec ID : mp42 (mp42/mp41)
    File size : 242 MiB
    Duration : 4 min 39 s
    Overall bit rate mode : Variable
    Overall bit rate : 7 251 kb/s
    Encoded date : UTC 2019-07-16 07:28:19
    Tagged date : UTC 2019-07-16 07:28:29
    TIM : 00:00:00:00
    TSC : 24000
    TSZ : 1001

    Video
    ID : 1
    Format : AVC
    Format/Info : Advanced Video Codec
    Format profile : Main@L4.1
    Format settings : CABAC / 4 Ref Frames
    Format settings, CABAC : Yes
    Format settings, ReFrames : 4 frames
    Codec ID : avc1
    Codec ID/Info : Advanced Video Coding
    Duration : 4 min 39 s
    Bit rate : 6 929 kb/s
    Width : 1 920 pixels
    Height : 1 080 pixels
    Display aspect ratio : 16:9
    Frame rate mode : Constant
    Frame rate : 23.976 (24000/1001) FPS
    Standard : NTSC
    Color space : YUV
    Chroma subsampling : 4:2:0
    Bit depth : 8 bits
    Scan type : Progressive
    Bits/(Pixel*Frame) : 0.139
    Stream size : 231 MiB (96%)
    Language : English
    Encoded date : UTC 2019-07-16 07:28:19
    Tagged date : UTC 2019-07-16 07:28:19
    Color range : Limited
    Color primaries : BT.709
    Transfer characteristics : BT.709
    Matrix coefficients : BT.709
    Codec configuration box : avcC

    Audio
    ID : 2
    Format : AAC
    Format/Info : Advanced Audio Codec
    Format profile : LC
    Codec ID : mp4a-40-2
    Duration : 4 min 39 s
    Source duration : 4 min 39 s
    Bit rate mode : Variable
    Bit rate : 317 kb/s
    Maximum bit rate : 413 kb/s
    Channel(s) : 2 channels
    Channel positions : Front: L R
    Sampling rate : 48.0 kHz
    Frame rate : 46.875 FPS (1024 SPF)
    Compression mode : Lossy
    Stream size : 10.6 MiB (4%)
    Source stream size : 10.6 MiB (4%)
    Language : English
    Encoded date : UTC 2019-07-16 07:28:19
    Tagged date : UTC 2019-07-16 07:28:19
    Hidden Content:
    You must reply before you can see the hidden data contained here.
     
    pomodoro_2013, tf135, Zanx94 and 2 others like this.
  2. Loading...


  3. tn5656

    tn5656 Well-Known Member

    Joined:
    Jan 20, 2017
    Messages:
    5,765
    Likes Received:
    243
    Thank you so much !!
     
  4. Pedro Correia

    Pedro Correia Well-Known Member

    Joined:
    Apr 17, 2014
    Messages:
    2,050
    Likes Received:
    247
  5. loverunsout

    loverunsout Member

    Joined:
    Aug 3, 2017
    Messages:
    204
    Likes Received:
    14
  6. Tadeulife

    Tadeulife Well-Known Member

    Joined:
    Jan 21, 2016
    Messages:
    1,033
    Likes Received:
    29
  7. musique.pop

    musique.pop Member

    Joined:
    Jul 30, 2018
    Messages:
    228
    Likes Received:
    15
  8. lim

    lim Well-Known Member

    Joined:
    Nov 8, 2013
    Messages:
    2,469
    Likes Received:
    82
    thank you
     
  9. villagragonzalo

    villagragonzalo Active Member

    Joined:
    Jul 2, 2017
    Messages:
    1,332
    Likes Received:
    16
  10. Jesus Miguel Rivero

    Jesus Miguel Rivero Well-Known Member

    Joined:
    Jul 9, 2015
    Messages:
    1,968
    Likes Received:
    65
  11. Scorpus007

    Scorpus007 Member

    Joined:
    Jun 10, 2017
    Messages:
    411
    Likes Received:
    4
  12. hz30039

    hz30039 Member

    Joined:
    Nov 18, 2018
    Messages:
    104
    Likes Received:
    3
    Thanks
     
  13. 96lagos

    96lagos Well-Known Member

    Joined:
    Dec 4, 2016
    Messages:
    1,008
    Likes Received:
    57
    Thanks
     
  14. panaceja56

    panaceja56 Member

    Joined:
    Jan 2, 2017
    Messages:
    215
    Likes Received:
    8
  15. Wes Halliwell

    Wes Halliwell Active Member

    Joined:
    Dec 17, 2014
    Messages:
    653
    Likes Received:
    43
    Thanks so much
     
  16. JoshyBoy

    JoshyBoy Member

    Joined:
    May 4, 2019
    Messages:
    70
    Likes Received:
    2
    Thank you. :)
     
  17. hiagobenevenuto

    hiagobenevenuto Member

    Joined:
    Apr 8, 2018
    Messages:
    98
    Likes Received:
    7
  18. antoniojoseguizilini

    antoniojoseguizilini Active Member

    Joined:
    Dec 2, 2016
    Messages:
    910
    Likes Received:
    43
    THANKS
     
  19. speciald

    speciald Member

    Joined:
    Dec 18, 2015
    Messages:
    230
    Likes Received:
    23
  20. ivan_sj

    ivan_sj Member

    Joined:
    Jul 24, 2014
    Messages:
    255
    Likes Received:
    8
    Thanks!
     
  21. Grailen

    Grailen Well-Known Member

    Joined:
    Oct 8, 2013
    Messages:
    688
    Likes Received:
    950
    thank you :)