Avril Lavigne - I Fell In Love With The Devil (1080p 60FPS)

Discussion in 'OTHERS' started by The-Cat-Whose-Name, Jul 16, 2019.

  1. The-Cat-Whose-Name

    The-Cat-Whose-Name Active Member

    Joined:
    Aug 3, 2017
    Messages:
    408
    Likes Received:
    174
    [​IMG]
    [​IMG]
    [​IMG]
    [​IMG]
    General
    Complete name : C:\Users\Koteika\Videos\Avril Lavigne - I Fell In Love With The Devil (1080p 60FPS).mp4
    Format : MPEG-4
    Format profile : Base Media / Version 2
    Codec ID : mp42 (mp42/mp41)
    File size : 342 MiB
    Duration : 4 min 38 s
    Overall bit rate mode : Variable
    Overall bit rate : 10.3 Mb/s
    Encoded date : UTC 2019-07-16 13:15:18
    Tagged date : UTC 2019-07-16 13:15:33
    TIM : 00:00:00:00
    TSC : 60000
    TSZ : 1001

    Video
    ID : 1
    Format : AVC
    Format/Info : Advanced Video Codec
    Format profile : Main@L4.2
    Format settings : CABAC / 4 Ref Frames
    Format settings, CABAC : Yes
    Format settings, ReFrames : 4 frames
    Codec ID : avc1
    Codec ID/Info : Advanced Video Coding
    Duration : 4 min 38 s
    Bit rate : 9 972 kb/s
    Width : 1 920 pixels
    Height : 1 080 pixels
    Display aspect ratio : 16:9
    Frame rate mode : Constant
    Frame rate : 59.940 (60000/1001) FPS
    Color space : YUV
    Chroma subsampling : 4:2:0
    Bit depth : 8 bits
    Scan type : Progressive
    Bits/(Pixel*Frame) : 0.080
    Stream size : 331 MiB (97%)
    Language : English
    Encoded date : UTC 2019-07-16 13:15:18
    Tagged date : UTC 2019-07-16 13:15:18
    Color range : Limited
    Color primaries : BT.709
    Transfer characteristics : BT.709
    Matrix coefficients : BT.709
    Codec configuration box : avcC

    Audio
    ID : 2
    Format : AAC
    Format/Info : Advanced Audio Codec
    Format profile : LC
    Codec ID : mp4a-40-2
    Duration : 4 min 38 s
    Source duration : 4 min 38 s
    Bit rate mode : Variable
    Bit rate : 317 kb/s
    Maximum bit rate : 414 kb/s
    Channel(s) : 2 channels
    Channel positions : Front: L R
    Sampling rate : 48.0 kHz
    Frame rate : 46.875 FPS (1024 SPF)
    Compression mode : Lossy
    Stream size : 10.5 MiB (3%)
    Source stream size : 10.5 MiB (3%)
    Language : English
    Encoded date : UTC 2019-07-16 13:15:18
    Tagged date : UTC 2019-07-16 13:15:18
    Convert from 24 to 60 FPS
    Hidden Content:
    You must reply before you can see the hidden data contained here.
     
  2. Loading...


  3. P1956

    P1956 Active Member

    Joined:
    Aug 18, 2014
    Messages:
    829
    Likes Received:
    92
    thanks
     
  4. Adryel

    Adryel Member

    Joined:
    Jan 26, 2019
    Messages:
    212
    Likes Received:
    22
    Thank you
     
  5. loverunsout

    loverunsout Member

    Joined:
    Aug 3, 2017
    Messages:
    204
    Likes Received:
    14
    Thank you
     
  6. Brytho

    Brytho Member

    Joined:
    Jan 31, 2019
    Messages:
    395
    Likes Received:
    8
    member
     
  7. thiagodevil

    thiagodevil Member

    Joined:
    Jan 10, 2017
    Messages:
    262
    Likes Received:
    17
  8. dinhasmoak

    dinhasmoak Member

    Joined:
    Oct 14, 2018
    Messages:
    30
    Likes Received:
    0
    thanks
     
  9. z3with6pack

    z3with6pack Member

    Joined:
    Oct 11, 2015
    Messages:
    459
    Likes Received:
    17
    Thank You
     
  10. zuluka

    zuluka Well-Known Member

    Joined:
    Jul 9, 2016
    Messages:
    1,353
    Likes Received:
    40
    thanks
     
  11. villagragonzalo

    villagragonzalo Active Member

    Joined:
    Jul 2, 2017
    Messages:
    1,332
    Likes Received:
    16
  12. Tiago

    Tiago Well-Known Member

    Joined:
    Dec 7, 2013
    Messages:
    2,862
    Likes Received:
    143
    thanks
     
  13. Zanx94

    Zanx94 Member

    Joined:
    Nov 21, 2013
    Messages:
    301
    Likes Received:
    17
    Thank You
     
  14. RoseSwan1995

    RoseSwan1995 Enjoy✔

    Joined:
    Sep 16, 2017
    Messages:
    737
    Likes Received:
    25
  15. Isager22

    Isager22 Music Lover

    Joined:
    Mar 27, 2017
    Messages:
    610
    Likes Received:
    2,714
    Just Amazing!! :love:
     
  16. Amy Winehouse

    Amy Winehouse Well-Known Member

    Joined:
    Dec 15, 2015
    Messages:
    922
    Likes Received:
    2,385
  17. MariahFan#1

    MariahFan#1 Member

    Joined:
    Jan 26, 2017
    Messages:
    168
    Likes Received:
    6
    Thank You!!!
     
  18. darvizuh

    darvizuh Member

    Joined:
    Feb 15, 2017
    Messages:
    58
    Likes Received:
    0
  19. ecrider1000

    ecrider1000 Active Member

    Joined:
    Jun 25, 2016
    Messages:
    660
    Likes Received:
    33
  20. avril924

    avril924 Member

    Joined:
    Apr 3, 2016
    Messages:
    174
    Likes Received:
    7
  21. zamby

    zamby Member

    Joined:
    May 28, 2018
    Messages:
    90
    Likes Received:
    3
    thanks