CC Avril Lavigne - Here's to Never Growing Up [Lyric Video] VH1HD 1080i HDTV DD2.0 H.264 CELOBRAZiL

Discussion in 'VH1 HD' started by CELOBRAZiL, Oct 11, 2017.

  1. CELOBRAZiL

    CELOBRAZiL Well-Known Member Capper V . I . P. Donor

    Joined:
    Oct 2, 2013
    Messages:
    5,177
    Likes Received:
    16,370
    Avril Lavigne - Here's to Never Growing Up [Lyric Video] VH1HD 1080i HDTV DD2.0 H.264 CELOBRAZiL-HDMania [CC]

    [​IMG]



    Format : MPEG-TS
    File size : 196 MiB
    Duration : 3mn 35s
    Overall bit rate mode : Variable
    Overall bit rate : 7 618 Kbps

    Video
    ID : 5408 (0x1520)
    Menu ID : 5416 (0x1528)
    Format : AVC
    Format/Info : Advanced Video Codec
    Format profile : High@L4
    Format settings, CABAC : Yes
    Format settings, ReFrames : 3 frames
    Codec ID : 27
    Duration : 3mn 37s
    Bit rate : 6 854 Kbps
    Width : 1 920 pixels
    Height : 1 080 pixels
    Display aspect ratio : 16:9
    Frame rate : 29.970 fps
    Color space : YUV
    Chroma subsampling : 4:2:0
    Bit depth : 8 bits
    Scan type : MBAFF
    Scan order : Top Field First
    Bits/(Pixel*Frame) : 0.110
    Stream size : 178 MiB (91%)

    Audio
    ID : 5409 (0x1521)
    Menu ID : 5416 (0x1528)
    Format : AC-3
    Format/Info : Audio Coding 3
    Mode extension : CM (complete main)
    Format settings, Endianness : Big
    Codec ID : 129
    Duration : 3mn 37s
    Bit rate mode : Constant
    Bit rate : 384 Kbps
    Channel(s) : 2 channels
    Channel positions : Front: L R
    Sampling rate : 48.0 KHz
    Bit depth : 16 bits
    Compression mode : Lossy
    Stream size : 9.97 MiB (5%)
    Language : English

    Text #1
    ID : 5408 (0x1520)-CC1
    Menu ID : 5416 (0x1528)
    Format : EIA-608
    Muxing mode : SCTE 128 / DTVCC Transport
    Muxing mode, more info : Muxed in Video #1
    Duration : 3mn 37s
    Bit rate mode : Constant
    Stream size : 0.00 Byte (0%)

    Text #2
    ID : 5408 (0x1520)-1
    Menu ID : 5416 (0x1528)
    Format : EIA-708
    Muxing mode : SCTE 128 / DTVCC Transport
    Muxing mode, more info : Muxed in Video #1
    Duration : 3mn 37s
    Bit rate mode : Constant
    Stream size : 0.00 Byte (0%)

    Link(s):
    Hidden Content:
    You must either reply or click 'Like' to see the hidden information contained here.
     
    rvden and rhea like this.
  2. Loading...


  3. jonathan joel 97

    jonathan joel 97 Sasuke

    Joined:
    Oct 1, 2015
    Messages:
    318
    Likes Received:
    229
    Thanks a lot :)
     
    CELOBRAZiL likes this.
  4. rhea

    rhea Well-Known Member

    Joined:
    Jan 6, 2014
    Messages:
    7,812
    Likes Received:
    993
    thanks :)
     
    CELOBRAZiL likes this.
  5. rvden

    rvden Well-Known Member

    Joined:
    Apr 9, 2017
    Messages:
    519
    Likes Received:
    366
    Thank you!
     
    CELOBRAZiL likes this.
  6. jayananda

    jayananda Active Member

    Joined:
    Jan 14, 2015
    Messages:
    932
    Likes Received:
    249
    Thank You
     
    CELOBRAZiL likes this.