Avril Lavigne - Here's To Never Growing Up (BridgeHD-1080i-MP2-Olgold)-HDMania

Discussion in 'Bridge HD' started by Olgold, Oct 9, 2016.

  1. Olgold

    Olgold Well-Known Member Capper

    Joined:
    Aug 19, 2015
    Messages:
    436
    Likes Received:
    1,521
    Avril Lavigne - Here's To Never Growing Up
    [​IMG]
    General
    Format : MPEG-TS
    File size : 202 MiB
    Duration : 3 min 39 s
    Overall bit rate mode : Variable
    Overall bit rate : 7 713 kb/s

    Video
    Format : AVC
    Format/Info : Advanced Video Codec
    Format profile : [email protected]
    Format settings, CABAC : Yes
    Format settings, ReFrames : 4 frames
    Bit rate : 7 138 kb/s
    Width : 1 920 pixels
    Height : 1 080 pixels
    Display aspect ratio : 16:9
    Frame rate : 25.000 FPS
    Standard : Component
    Color space : YUV
    Chroma subsampling : 4:2:0
    Bit depth : 8 bits
    Scan type : Interlaced
    Scan type, store method : Separated fields
    Scan order : Top Field First
    Bits/(Pixel*Frame) : 0.138
    Stream size : 187 MiB (93%)
    Color range : Limited

    Audio
    Format : MPEG Audio
    Format version : Version 1
    Format profile : Layer 2
    Duration : 3 min 39 s
    Bit rate mode : Constant
    Bit rate : 192 kb/s
    Channel(s) : 2 channels
    Sampling rate : 48.0 kHz
    Compression mode : Lossy
    Delay relative to video : -8 ms
    Stream size : 5.04 MiB (2%)
    Password: Olgold

    Hidden Content:
    You must reply before you can see the hidden data contained here.
     
    revilo18, CELOBRAZiL and rhea like this.
  2. Loading...


  3. Hyrus

    Hyrus Arianator / Selenator / Victorian / LBS* Donor

    Joined:
    Feb 9, 2015
    Messages:
    1,171
    Likes Received:
    776
    Thanks a lot for Avril. Great video!! :happy::)
     
  4. rhea

    rhea Well-Known Member

    Joined:
    Jan 6, 2014
    Messages:
    5,872
    Likes Received:
    435
    thank you so much :)
     
  5. Grailen

    Grailen Well-Known Member

    Joined:
    Oct 8, 2013
    Messages:
    574
    Likes Received:
    711
    thank you :)
     
  6. CELOBRAZiL

    CELOBRAZiL Well-Known Member Capper V . I . P. Donor

    Joined:
    Oct 2, 2013
    Messages:
    2,809
    Likes Received:
    7,853
    Thank you so much! :)
     
  7. hanshermann

    hanshermann Well-Known Member

    Joined:
    Aug 24, 2016
    Messages:
    3,814
    Likes Received:
    29
    wahts taht
     
  8. rikylouis14

    rikylouis14 Well-Known Member

    Joined:
    Jun 27, 2016
    Messages:
    689
    Likes Received:
    335
  9. revilo18

    revilo18 Well-Known Member

    Joined:
    May 26, 2016
    Messages:
    1,513
    Likes Received:
    67
    thankkk
     
  10. venvaneless

    venvaneless New Member

    Joined:
    Jun 14, 2017
    Messages:
    17
    Likes Received:
    0
    thank you