Avril Lavigne - Hello Kitty (M-ON! HD)

Discussion in 'M-ON!' started by DETOX, Jun 6, 2014.

  1. DETOX

    DETOX Well-Known Member V . I . P. Uploader

    Joined:
    Feb 20, 2014
    Messages:
    2,583
    Likes Received:
    12,066

    [​IMG]


    General
    ID : 16389 (0x4005)
    Complete name : Avril Lavigne - Hello Kitty (M-ON! HD).ts
    Format : MPEG-TS
    File size : 220 MiB
    Duration : 3mn 16s
    Overall bit rate mode : Variable
    Overall bit rate : 9 246 Kbps

    Video
    ID : 4099 (0x1003)
    Menu ID : 33409 (0x8281)
    Format : AVC
    Format/Info : Advanced Video Codec
    Format profile : [email protected]
    Format settings, CABAC : Yes
    Format settings, ReFrames : 4 frames
    Codec ID : 27
    Duration : 3mn 19s
    Bit rate mode : Variable
    Bit rate : 8 643 Kbps
    Maximum bit rate : 20.0 Mbps
    Width : 1 440 pixels
    Height : 1 080 pixels
    Display aspect ratio : 16:9
    Frame rate : 29.970 fps
    Standard : Component
    Color space : YUV
    Chroma subsampling : 4:2:0
    Bit depth : 8 bits
    Scan type : Interlaced
    Scan order : Top Field First
    Bits/(Pixel*Frame) : 0.185
    Stream size : 205 MiB (93%)
    Color primaries : BT.709
    Transfer characteristics : BT.709
    Matrix coefficients : BT.709

    Audio
    ID : 4163 (0x1043)
    Menu ID : 33409 (0x8281)
    Format : AAC
    Format/Info : Advanced Audio Codec
    Format version : Version 2
    Format profile : LC
    Muxing mode : ADTS
    Codec ID : 15
    Duration : 3mn 19s
    Bit rate mode : Variable
    Bit rate : 144 Kbps
    Channel(s) : 2 channels
    Channel positions : Front: L R
    Sampling rate : 48.0 KHz
    Compression mode : Lossy
    Delay relative to video : -119ms
    Stream size : 3.42 MiB (2%)

    SERVER: MEGA / PASSWORD: DETOX

    Hidden Content:
    You must reply before you can see the hidden data contained here.
     
    Last edited: Feb 28, 2015
    johymbim, Pra, Vjeans and 3 others like this.
  2. rhea

    rhea Well-Known Member

    Joined:
    Jan 6, 2014
    Messages:
    5,193
    Likes Received:
    250
    thank you so much :)
     
  3. faz

    faz Member

    Joined:
    Jan 9, 2014
    Messages:
    196
    Likes Received:
    1
    Thank you so much
     
  4. alvin

    alvin Member

    Joined:
    May 11, 2014
    Messages:
    197
    Likes Received:
    11
     
  5. talata

    talata Member

    Joined:
    Nov 14, 2013
    Messages:
    255
    Likes Received:
    5
    Thanks!
     
  6. pablo palormo

    pablo palormo Member

    Joined:
    Oct 27, 2013
    Messages:
    177
    Likes Received:
    2
  7. Vjeans

    Vjeans Well-Known Member

    Joined:
    May 10, 2014
    Messages:
    853
    Likes Received:
    2,450
    Cool!Thanks!
     
  8. Escalade1080p

    Escalade1080p Member

    Joined:
    Nov 20, 2013
    Messages:
    465
    Likes Received:
    10
  9. Pra

    Pra Member

    Joined:
    Jun 19, 2014
    Messages:
    31
    Likes Received:
    3
    Thank yooooooooooooooooooooouuuuuuuuuuuuu
     
  10. bamaguy11

    bamaguy11 Member

    Joined:
    May 8, 2014
    Messages:
    192
    Likes Received:
    1
  11. Siki

    Siki Member

    Joined:
    Jul 2, 2014
    Messages:
    27
    Likes Received:
    0
    thanks!
     
  12. MileFisherman

    MileFisherman New Member

    Joined:
    Jul 18, 2014
    Messages:
    14
    Likes Received:
    0
    wow this is amazing,thank you so much!
     
  13. slill

    slill Member

    Joined:
    Jul 25, 2014
    Messages:
    890
    Likes Received:
    7
    thanks for sharing
     
  14. zzimorodok

    zzimorodok Member

    Joined:
    May 23, 2014
    Messages:
    74
    Likes Received:
    4
     
  15. sanad khandelwal

    sanad khandelwal Active Member

    Joined:
    Mar 14, 2014
    Messages:
    172
    Likes Received:
    244
    thankssssssssssssssssssss
     
  16. quake1

    quake1 New Member

    Joined:
    Sep 7, 2014
    Messages:
    10
    Likes Received:
    0
  17. vittel999

    vittel999 Member

    Joined:
    Sep 10, 2014
    Messages:
    227
    Likes Received:
    4
  18. mehmet

    mehmet Member

    Joined:
    Nov 22, 2013
    Messages:
    120
    Likes Received:
    2
    thank you so much
     
  19. Oloarte

    Oloarte New Member

    Joined:
    Oct 22, 2014
    Messages:
    6
    Likes Received:
    0
    thx so +
     
  20. ecortez

    ecortez Member

    Joined:
    Jan 14, 2014
    Messages:
    65
    Likes Received:
    0
    Thank you.