Avril Lavigne Feat. Chad Kroeger - Let Me Go (M3HD-DD5.1-1080i-AmazonBoy) [CC]

Discussion in 'M3 HD' started by rgf72k, Nov 17, 2013.

  1. rgf72k

    rgf72k Founder Staff Member AdMiN

    Joined:
    Oct 1, 2013
    Messages:
    1,020
    Likes Received:
    15,471
    [​IMG]

    Code:
    General
    ID                                      : 1 (0x1)
    Complete name                            : Avril Lavigne Feat. Chad Kroeger - Let Me Go (M3HD-1080i-AmazonBoy).ts
    Format                                  : MPEG-TS
    File size                                : 524 MiB
    Duration                                : 5mn 6s
    Overall bit rate mode                    : Variable
    Overall bit rate                        : 14.4 Mbps
    
    Video
    ID                                      : 769 (0x301)
    Menu ID                                  : 1 (0x1)
    Format                                  : MPEG Video
    Format version                          : Version 2
    Format profile                          : [email protected]
    Format settings, BVOP                    : Yes
    Format settings, Matrix                  : Custom
    Format settings, GOP                    : Variable
    Codec ID                                : 2
    Duration                                : 5mn 6s
    Bit rate mode                            : Variable
    Bit rate                                : 13.3 Mbps
    Maximum bit rate                        : 24.0 Mbps
    Width                                    : 1 920 pixels
    Height                                  : 1 080 pixels
    Display aspect ratio                    : 16:9
    Frame rate                              : 29.970 fps
    Color space                              : YUV
    Chroma subsampling                      : 4:2:0
    Bit depth                                : 8 bits
    Compression mode                        : Lossy
    Bits/(Pixel*Frame)                      : 0.213
    Time code of first frame                : 00:00:00;00
    Time code source                        : Group of pictures header
    Stream size                              : 484 MiB (92%)
    Writing library                          : (c) 1998-2012 Womble Multimedia, Inc. / MPEG Video Wizard DVD 5.0.1.100 (03/2011) / Sep 22 2012
    
    Audio
    ID                                      : 770 (0x302)
    Menu ID                                  : 1 (0x1)
    Format                                  : AC-3
    Format/Info                              : Audio Coding 3
    Mode extension                          : CM (complete main)
    Format settings, Endianness              : Big
    Codec ID                                : 129
    Duration                                : 5mn 6s
    Bit rate mode                            : Constant
    Bit rate                                : 384 Kbps
    Channel(s)                              : 6 channels
    Channel positions                        : Front: L C R, Side: L R, LFE
    Sampling rate                            : 48.0 KHz
    Bit depth                                : 16 bits
    Compression mode                        : Lossy
    Stream size                              : 14.0 MiB (3%)
    Language                                : English
    
    Text #1
    ID                                      : 769 (0x301)-CC1
    Menu ID                                  : 1 (0x1)
    Format                                  : EIA-608
    Muxing mode                              : A/53 / DTVCC Transport
    Muxing mode, more info                  : Muxed in Video #1
    Duration                                : 5mn 6s
    Bit rate mode                            : Constant
    Stream size                              : 0.00 Byte (0%)
    
    Text #2
    ID                                      : 769 (0x301)-1
    Menu ID                                  : 1 (0x1)
    Format                                  : EIA-708
    Muxing mode                              : A/53 / DTVCC Transport
    Muxing mode, more info                  : Muxed in Video #1
    Duration                                : 5mn 6s
    Bit rate mode                            : Constant
    Stream size                              : 0.00 Byte (0%)
    

    Download:
    Hidden Content:
    You must either reply or click 'Like' to see the hidden information contained here.


    Password: sharemania.net


    Capper: AmazonBoy
     
    Last edited: Nov 20, 2013
  2. pablo palormo

    pablo palormo Member

    Joined:
    Oct 27, 2013
    Messages:
    177
    Likes Received:
    2
  3. KallumLavigne

    KallumLavigne Well-Known Member

    Joined:
    Nov 18, 2013
    Messages:
    678
    Likes Received:
    1,296
    thanks would love more videos from this channel
     
    Fernanda likes this.
  4. hiepham

    hiepham VideoHolic V . I . P.

    Joined:
    Oct 30, 2013
    Messages:
    262
    Likes Received:
    1,477
    Very nice cap. Thank you for this :)
     
  5. lucash

    lucash Member

    Joined:
    Nov 25, 2013
    Messages:
    212
    Likes Received:
    14
    thanks
     
  6. Laryovceks

    Laryovceks Member

    Joined:
    Dec 5, 2013
    Messages:
    24
    Likes Received:
    0
    thaaaaaaaaaaaaaaanx
     
  7. Laryovceks

    Laryovceks Member

    Joined:
    Dec 5, 2013
    Messages:
    24
    Likes Received:
    0
    thx bro
     
  8. mg2242

    mg2242 Member

    Joined:
    Nov 30, 2013
    Messages:
    80
    Likes Received:
    0
    Thanks!!
     
  9. xptmxm

    xptmxm Member

    Joined:
    Nov 20, 2013
    Messages:
    283
    Likes Received:
    11
    Thanks
     
  10. bhavik

    bhavik Member

    Joined:
    Dec 18, 2013
    Messages:
    28
    Likes Received:
    2
    thanx
     
  11. wut5700

    wut5700 Member

    Joined:
    Dec 17, 2013
    Messages:
    43
    Likes Received:
    0
    thank you
     
  12. HDcollector

    HDcollector Member

    Joined:
    Dec 15, 2013
    Messages:
    441
    Likes Received:
    7
    My appreciation for sharing this great performance!
     
  13. brici14

    brici14 Member

    Joined:
    Dec 9, 2013
    Messages:
    177
    Likes Received:
    1
    Thank you
     
  14. Fernanda

    Fernanda Member

    Joined:
    Jan 13, 2014
    Messages:
    112
    Likes Received:
    1
    Bru ray Quality
     
  15. ryualviss

    ryualviss Active Member

    Joined:
    Jan 6, 2014
    Messages:
    151
    Likes Received:
    545
    Thank you for this
     
  16. kireta

    kireta New Member

    Joined:
    Nov 12, 2013
    Messages:
    2
    Likes Received:
    0
    Thanks
     
  17. Vjeans

    Vjeans Well-Known Member V . I . P.

    Joined:
    May 10, 2014
    Messages:
    1,075
    Likes Received:
    3,424
    Good!Thanks!
     
  18. Vjeans

    Vjeans Well-Known Member V . I . P.

    Joined:
    May 10, 2014
    Messages:
    1,075
    Likes Received:
    3,424
    no longer available....
     
  19. celio

    celio Member

    Joined:
    Oct 29, 2013
    Messages:
    973
    Likes Received:
    17
    very good
     
  20. Pra

    Pra Member

    Joined:
    Jun 19, 2014
    Messages:
    66
    Likes Received:
    6
    Thanks
     
    Emazing likes this.