HDTV Avril Lavigne - Exclusive – Live CBC Concert (2007) 1080i

Discussion in 'HD Live Performances' started by adam dark, May 28, 2014.

  1. redmerkillry

    redmerkillry Member

    Joined:
    Dec 9, 2016
    Messages:
    47
    Likes Received:
    9
    Thank you so much
     
  2. edsonavril33

    edsonavril33 Member

    Joined:
    Jun 17, 2017
    Messages:
    277
    Likes Received:
    14
  3. sssssss11

    sssssss11 Member

    Joined:
    Nov 20, 2016
    Messages:
    119
    Likes Received:
    3
  4. brunolima284

    brunolima284 Member

    Joined:
    May 13, 2017
    Messages:
    357
    Likes Received:
    18
    ObRIGADO.
     
  5. The-Cat-Whose-Name

    The-Cat-Whose-Name Member

    Joined:
    Aug 3, 2017
    Messages:
    206
    Likes Received:
    10
  6. asithappens

    asithappens Member

    Joined:
    May 26, 2014
    Messages:
    122
    Likes Received:
    6
    thank you
     
  7. Clepsodra

    Clepsodra Active Member

    Joined:
    Jan 15, 2017
    Messages:
    554
    Likes Received:
    114
    Avril Lavigne - Exclusive – Live CBC Concert (2007) 1080i

    [​IMG]

    [​IMG]

    [​IMG]

    [​IMG]

    [​IMG]


    [​IMG]

    [​IMG]

    [​IMG]

    Tracklist:
    • Girlfriend
    • I Can Do Better
    • Sk8er Boi
    • My Happy Ending
    • Losing Grip
    • Runaway
    • Don’t Tell Me
    • Keep Holding On (Album Recording)
    • I’m With You
    • Everything Back But You
    • The Best Damn Thing
    • Complicated
    • I Don’t Have To Try
    • He Wasn’t
    • When You’re Gone
    Code:
    General
    Complete name : Avril Lavigne - Exclusive – Live CBC Concert (2007) 1080i.mkv
    Format : MPEG-PS
    File size : 7.74 GiB
    Duration : 1h 6mn
    Overall bit rate mode : Variable
    Overall bit rate : 16.7 Mbps
    Law rating : PG

    Video
    ID : 224 (0xE0)
    Format : MPEG Video
    Format version : Version 2
    Format profile : Main@High
    Format settings, BVOP : No
    Format settings, Matrix : Custom
    Format settings, GOP : Variable
    Duration : 1h 6mn
    Bit rate mode : Variable
    Bit rate : 16.0 Mbps
    Maximum bit rate : 38.0 Mbps
    Width : 1 920 pixels
    Height : 1 080 pixels
    Display aspect ratio : 16:9
    Frame rate : 29.970 fps
    Color space : YUV
    Chroma subsampling : 4:2:0
    Bit depth : 8 bits
    Scan type : Interlaced
    Scan order : Top Field First
    Compression mode : Lossy
    Bits/(Pixel*Frame) : 0.257
    Time code of first frame : 00:00:00;00
    Time code source : Group of pictures header
    Stream size : 7.40 GiB (96%)

    Audio
    ID : 189 (0xBD)-128 (0x80)
    Format : AC-3
    Format/Info : Audio Coding 3
    Mode extension : CM (complete main)
    Format settings, Endianness : Big
    Muxing mode : DVD-Video
    Duration : 1h 6mn
    Bit rate mode : Constant
    Bit rate : 384 Kbps
    Channel(s) : 6 channels
    Channel positions : Front: L C R, Side: L R, LFE
    Sampling rate : 48.0 KHz
    Bit depth : 16 bits
    Compression mode : Lossy
    Stream size : 182 MiB (2%)

    Text #1
    ID : 224 (0xE0)-CC1
    Format : EIA-608
    Muxing mode : A/53 / DTVCC Transport
    Muxing mode, more info : Muxed in Video #1
    Bit rate mode : Constant
    Stream size : 0.00 Byte (0%)

    Text #2
    ID : 224 (0xE0)-1
    Format : EIA-708
    Muxing mode : A/53 / DTVCC Transport
    Muxing mode, more info : Muxed in Video #1
    Bit rate mode : Constant
    Stream size : 0.00 Byte (0%)
    Hidden Content:
    You must either reply or click 'Like' to see the hidden information contained here.
     
    aquarich and fatcat like this.
  8. fatcat

    fatcat Member

    Joined:
    Nov 14, 2016
    Messages:
    44
    Likes Received:
    4
    Thank you !!
     
  9. Neta

    Neta Member

    Joined:
    Nov 28, 2014
    Messages:
    113
    Likes Received:
    2
    thanks
     
  10. heinibeini

    heinibeini New Member

    Joined:
    May 21, 2014
    Messages:
    16
    Likes Received:
    0
    thanks!
     
  11. aquarich

    aquarich New Member

    Joined:
    May 29, 2018
    Messages:
    9
    Likes Received:
    0
    thanks!
     
  12. Kensing

    Kensing Member

    Joined:
    Dec 27, 2013
    Messages:
    294
    Likes Received:
    2
    Thanks
     
  13. rikylouis14

    rikylouis14 Well-Known Member

    Joined:
    Jun 27, 2016
    Messages:
    826
    Likes Received:
    612
  14. Novalfajri1993

    Novalfajri1993 Active Member

    Joined:
    May 5, 2017
    Messages:
    297
    Likes Received:
    25
  15. BleedingMe

    BleedingMe New Member

    Joined:
    Feb 13, 2017
    Messages:
    13
    Likes Received:
    1
  16. Rakisney

    Rakisney Member

    Joined:
    Feb 6, 2018
    Messages:
    144
    Likes Received:
    7
    Thank You