Avril Lavigne - Don't Tell Me (Upscale/Remastered, Lpcm, 1080p)

Discussion in 'UPSCALED' started by GSRemast21, Sep 19, 2016.

  1. Regis

    Regis Well-Known Member

    Joined:
    Jul 14, 2015
    Messages:
    1,000
    Likes Received:
    25
    Obrigado
     
  2. chernan

    chernan New Member

    Joined:
    Dec 28, 2016
    Messages:
    4
    Likes Received:
    0
    Im like it...thanks..
     
  3. el_inigualable

    el_inigualable Member

    Joined:
    Dec 25, 2016
    Messages:
    198
    Likes Received:
    3
    MUERTO EL :mad::mad::mad::mad::mad::mad:ENLACE
     
  4. airj23

    airj23 Member

    Joined:
    Apr 17, 2014
    Messages:
    103
    Likes Received:
    0
    Thanks!!
     
  5. hanshermann

    hanshermann Active Member

    Joined:
    Aug 24, 2016
    Messages:
    1,475
    Likes Received:
    5
    wahts taht
     
  6. dinhotwain

    dinhotwain Member

    Joined:
    Jan 1, 2015
    Messages:
    442
    Likes Received:
    11
    thanks!
     
  7. Fernando

    Fernando Member

    Joined:
    Jul 22, 2014
    Messages:
    443
    Likes Received:
    3
    thanks
     
  8. ikerf1

    ikerf1 New Member

    Joined:
    Jan 11, 2017
    Messages:
    9
    Likes Received:
    0
    thanks
     
  9. someone42

    someone42 Member

    Joined:
    Jan 15, 2017
    Messages:
    55
    Likes Received:
    0
  10. Jesus Miguel Rivero

    Jesus Miguel Rivero Member

    Joined:
    Jul 9, 2015
    Messages:
    274
    Likes Received:
    3
  11. revilo18

    revilo18 Well-Known Member

    Joined:
    May 26, 2016
    Messages:
    1,310
    Likes Received:
    58
    thankkk
     
  12. marcheta88

    marcheta88 Member

    Joined:
    Jan 5, 2017
    Messages:
    33
    Likes Received:
    3
    muchas gracias
    [​IMG]
    [​IMG]

    Format : Matroska
    Format version : Version 4 / Version 2
    File size : 531 MiB
    Duration : 3mn 26s
    Overall bit rate : 21.6 Mbps
    Encoded date : UTC 2016-09-17 22:24:07
    Writing application : mkvmerge v7.7.0 ('Six Voices') 64bit built on Feb 28 2015 23:39:33
    Writing library : libebml v1.3.1 + libmatroska v1.4.2

    Video
    ID : 1
    Format : AVC
    Format/Info : Advanced Video Codec
    Format profile : [email protected]
    Format settings, CABAC : Yes
    Format settings, ReFrames : 16 frames
    Codec ID : V_MPEG4/ISO/AVC
    Duration : 3mn 26s
    Bit rate : 20.0 Mbps
    Width : 1 440 pixels
    Height : 1 080 pixels
    Display aspect ratio : 4:3
    Frame rate mode : Constant
    Frame rate : 24.000 fps
    Color space : YUV
    Chroma subsampling : 4:2:0
    Bit depth : 8 bits
    Scan type : Progressive
    Bits/(Pixel*Frame) : 0.536
    Stream size : 493 MiB (93%)
    Writing library : x264 core 148 r2638 7599210
    Default : Yes
    Forced : No

    Audio
    ID : 2
    Format : PCM
    Codec ID : A_PCM/INT/LIT
    Duration : 3mn 26s
    Bit rate mode : Constant
    Bit rate : 1 536 Kbps
    Channel(s) : 2 channels
    Sampling rate : 48.0 KHz
    Frame rate : 32.001 fps (1500 spf)
    Bit depth : 16 bits
    Stream size : 37.8 MiB (7%)
    Default : Yes
    Forced : No

    ***Hidden content cannot be quoted.***
    [/QUOTE]
     
  13. ivandario

    ivandario Member

    Joined:
    Jun 27, 2015
    Messages:
    102
    Likes Received:
    1
    Thank You!
     
  14. Tiago

    Tiago Active Member

    Joined:
    Dec 7, 2013
    Messages:
    1,013
    Likes Received:
    13
    thank you
     
  15. Martín O. 15-02

    Martín O. 15-02 New Member

    Joined:
    Jan 26, 2017
    Messages:
    14
    Likes Received:
    0
    Like :)
     
  16. Pedro16

    Pedro16 Member

    Joined:
    Jan 16, 2017
    Messages:
    58
    Likes Received:
    0
    This Link is Broken :(
     
  17. Dyoggo

    Dyoggo Member

    Joined:
    May 14, 2014
    Messages:
    416
    Likes Received:
    4
    thanks
     
  18. Dyoggo

    Dyoggo Member

    Joined:
    May 14, 2014
    Messages:
    416
    Likes Received:
    4
    This Link is Broken
     
  19. kakaaws

    kakaaws Member

    Joined:
    Jan 7, 2017
    Messages:
    96
    Likes Received:
    4
    obrigado!!!
     
  20. jkgg7

    jkgg7 New Member

    Joined:
    Jan 27, 2017
    Messages:
    13
    Likes Received:
    1
    Thanks