Avril Lavigne - Don't Tell Me (Upscale/Remastered, Lpcm, 1080p)

Discussion in 'UPSCALED' started by GSRemast21, Sep 19, 2016.

  1. GSRemast21

    GSRemast21 Well-Known Member

    Joined:
    Dec 6, 2014
    Messages:
    451
    Likes Received:
    360
    [​IMG]
    [​IMG]

    Format : Matroska
    Format version : Version 4 / Version 2
    File size : 531 MiB
    Duration : 3mn 26s
    Overall bit rate : 21.6 Mbps
    Encoded date : UTC 2016-09-17 22:24:07
    Writing application : mkvmerge v7.7.0 ('Six Voices') 64bit built on Feb 28 2015 23:39:33
    Writing library : libebml v1.3.1 + libmatroska v1.4.2

    Video
    ID : 1
    Format : AVC
    Format/Info : Advanced Video Codec
    Format profile : [email protected]
    Format settings, CABAC : Yes
    Format settings, ReFrames : 16 frames
    Codec ID : V_MPEG4/ISO/AVC
    Duration : 3mn 26s
    Bit rate : 20.0 Mbps
    Width : 1 440 pixels
    Height : 1 080 pixels
    Display aspect ratio : 4:3
    Frame rate mode : Constant
    Frame rate : 24.000 fps
    Color space : YUV
    Chroma subsampling : 4:2:0
    Bit depth : 8 bits
    Scan type : Progressive
    Bits/(Pixel*Frame) : 0.536
    Stream size : 493 MiB (93%)
    Writing library : x264 core 148 r2638 7599210
    Default : Yes
    Forced : No

    Audio
    ID : 2
    Format : PCM
    Codec ID : A_PCM/INT/LIT
    Duration : 3mn 26s
    Bit rate mode : Constant
    Bit rate : 1 536 Kbps
    Channel(s) : 2 channels
    Sampling rate : 48.0 KHz
    Frame rate : 32.001 fps (1500 spf)
    Bit depth : 16 bits
    Stream size : 37.8 MiB (7%)
    Default : Yes
    Forced : No

    Hidden Content:
    You must reply before you can see the hidden data contained here.
     
  2. Loading...


  3. andreamonger

    andreamonger Active Member

    Joined:
    May 16, 2015
    Messages:
    975
    Likes Received:
    151
    omg me muero! graciasss
     
  4. MajorVi

    MajorVi Member

    Joined:
    Feb 12, 2016
    Messages:
    396
    Likes Received:
    7
    Thank you
     
  5. Vjeans

    Vjeans Well-Known Member

    Joined:
    May 10, 2014
    Messages:
    885
    Likes Received:
    2,593
    Thank you!
     
  6. multimediafm

    multimediafm Well-Known Member Donor

    Joined:
    Mar 27, 2014
    Messages:
    8,353
    Likes Received:
    343
    Thanks :)
    Avril Lavigne - Don't Tell Me (Upscale/Remastered, Lpcm, 1080p)
     
  7. 777josem

    777josem Well-Known Member Uploader

    Joined:
    Sep 1, 2014
    Messages:
    2,431
    Likes Received:
    1,308
    Thank you so much!
     
  8. andreamonger

    andreamonger Active Member

    Joined:
    May 16, 2015
    Messages:
    975
    Likes Received:
    151
    está hermosooo, lo amooo!!
     
  9. adam dark

    adam dark Well-Known Member

    Joined:
    Dec 5, 2013
    Messages:
    2,485
    Likes Received:
    3,857
  10. Dave

    Dave Well-Known Member

    Joined:
    Jun 2, 2015
    Messages:
    542
    Likes Received:
    271
    gracias :)
     
  11. rikylouis14

    rikylouis14 Well-Known Member

    Joined:
    Jun 27, 2016
    Messages:
    574
    Likes Received:
    251
    Obrigada! Amei
     
  12. Mike150486

    Mike150486 New Member

    Joined:
    Jul 14, 2016
    Messages:
    7
    Likes Received:
    1
    Thank you
     
  13. quake2

    quake2 Active Member

    Joined:
    Oct 11, 2014
    Messages:
    821
    Likes Received:
    32
    thanks
     
  14. willjay

    willjay Member

    Joined:
    May 13, 2016
    Messages:
    148
    Likes Received:
    4
    Thanks for this
     
  15. Schoder

    Schoder Member

    Joined:
    Jul 8, 2015
    Messages:
    149
    Likes Received:
    12
    thanks
     
  16. Plazik

    Plazik New Member

    Joined:
    Oct 7, 2013
    Messages:
    28
    Likes Received:
    7
    thanks
     
  17. merrylorie

    merrylorie Member

    Joined:
    Feb 25, 2016
    Messages:
    108
    Likes Received:
    0
  18. yonita

    yonita Member

    Joined:
    Mar 7, 2016
    Messages:
    354
    Likes Received:
    10
    graciass
     
  19. XaiDor

    XaiDor Member

    Joined:
    Sep 22, 2016
    Messages:
    75
    Likes Received:
    3
    Thank you!
     
  20. pomodoro_2013

    pomodoro_2013 Member

    Joined:
    Nov 17, 2013
    Messages:
    328
    Likes Received:
    4
    Thank you so much
     
  21. hapiny

    hapiny Member

    Joined:
    Nov 24, 2014
    Messages:
    483
    Likes Received:
    6
    thank you!