Avril Lavigne - Don't Tell Me (Upscale/Remastered, Lpcm, 1080p)

Discussion in 'UPSCALED' started by GSRemast21, Sep 19, 2016.

  1. GSRemast21

    GSRemast21 Well-Known Member

    Joined:
    Dec 6, 2014
    Messages:
    451
    Likes Received:
    456
    [​IMG]
    [​IMG]

    Format : Matroska
    Format version : Version 4 / Version 2
    File size : 531 MiB
    Duration : 3mn 26s
    Overall bit rate : 21.6 Mbps
    Encoded date : UTC 2016-09-17 22:24:07
    Writing application : mkvmerge v7.7.0 ('Six Voices') 64bit built on Feb 28 2015 23:39:33
    Writing library : libebml v1.3.1 + libmatroska v1.4.2

    Video
    ID : 1
    Format : AVC
    Format/Info : Advanced Video Codec
    Format profile : [email protected]
    Format settings, CABAC : Yes
    Format settings, ReFrames : 16 frames
    Codec ID : V_MPEG4/ISO/AVC
    Duration : 3mn 26s
    Bit rate : 20.0 Mbps
    Width : 1 440 pixels
    Height : 1 080 pixels
    Display aspect ratio : 4:3
    Frame rate mode : Constant
    Frame rate : 24.000 fps
    Color space : YUV
    Chroma subsampling : 4:2:0
    Bit depth : 8 bits
    Scan type : Progressive
    Bits/(Pixel*Frame) : 0.536
    Stream size : 493 MiB (93%)
    Writing library : x264 core 148 r2638 7599210
    Default : Yes
    Forced : No

    Audio
    ID : 2
    Format : PCM
    Codec ID : A_PCM/INT/LIT
    Duration : 3mn 26s
    Bit rate mode : Constant
    Bit rate : 1 536 Kbps
    Channel(s) : 2 channels
    Sampling rate : 48.0 KHz
    Frame rate : 32.001 fps (1500 spf)
    Bit depth : 16 bits
    Stream size : 37.8 MiB (7%)
    Default : Yes
    Forced : No

    Hidden Content:
    You must reply before you can see the hidden data contained here.
     
    Angel1989, ikerf1, sclubroca and 6 others like this.
  2. Loading...


  3. andreamonger

    andreamonger Well-Known Member

    Joined:
    May 16, 2015
    Messages:
    1,044
    Likes Received:
    176
    omg me muero! graciasss
     
  4. MajorVi

    MajorVi Member

    Joined:
    Feb 12, 2016
    Messages:
    443
    Likes Received:
    11
    Thank you
     
  5. Vjeans

    Vjeans Well-Known Member V . I . P.

    Joined:
    May 10, 2014
    Messages:
    1,029
    Likes Received:
    3,289
    Thank you!
     
  6. multimediafm

    multimediafm Well-Known Member Donor

    Joined:
    Mar 27, 2014
    Messages:
    9,471
    Likes Received:
    475
    Thanks :)
    Avril Lavigne - Don't Tell Me (Upscale/Remastered, Lpcm, 1080p)
     
  7. 777josem

    777josem ProRes 1080p LPCM V . I . P. Uploader

    Joined:
    Sep 1, 2014
    Messages:
    3,491
    Likes Received:
    2,644
    Thank you so much!
     
  8. andreamonger

    andreamonger Well-Known Member

    Joined:
    May 16, 2015
    Messages:
    1,044
    Likes Received:
    176
    está hermosooo, lo amooo!!
     
  9. adam dark

    adam dark Video Music Lover <3 V . I . P.

    Joined:
    Dec 5, 2013
    Messages:
    2,595
    Likes Received:
    4,705
  10. Dave

    Dave Well-Known Member

    Joined:
    Jun 2, 2015
    Messages:
    774
    Likes Received:
    355
    gracias :)
     
  11. rikylouis14

    rikylouis14 Well-Known Member

    Joined:
    Jun 27, 2016
    Messages:
    717
    Likes Received:
    402
    Obrigada! Amei
     
  12. Mike150486

    Mike150486 New Member

    Joined:
    Jul 14, 2016
    Messages:
    13
    Likes Received:
    1
    Thank you
     
  13. quake2

    quake2 Well-Known Member

    Joined:
    Oct 11, 2014
    Messages:
    1,008
    Likes Received:
    56
    thanks
     
  14. willjay

    willjay Member

    Joined:
    May 13, 2016
    Messages:
    161
    Likes Received:
    5
    Thanks for this
     
  15. Schoder

    Schoder Member

    Joined:
    Jul 8, 2015
    Messages:
    169
    Likes Received:
    16
    thanks
     
  16. Plazik

    Plazik Member

    Joined:
    Oct 7, 2013
    Messages:
    40
    Likes Received:
    9
    thanks
     
  17. merrylorie

    merrylorie Member

    Joined:
    Feb 25, 2016
    Messages:
    131
    Likes Received:
    0
  18. yonita

    yonita Active Member

    Joined:
    Mar 7, 2016
    Messages:
    411
    Likes Received:
    38
    graciass
     
  19. XaiDor

    XaiDor Member

    Joined:
    Sep 22, 2016
    Messages:
    80
    Likes Received:
    3
    Thank you!
     
  20. pomodoro_2013

    pomodoro_2013 Member

    Joined:
    Nov 17, 2013
    Messages:
    349
    Likes Received:
    6
    Thank you so much
     
  21. hapiny

    hapiny Member

    Joined:
    Nov 24, 2014
    Messages:
    550
    Likes Received:
    9
    thank you!