Avril Lavigne - Don't Tell Me (Upscale/Remastered, Lpcm, 1080p)

Discussion in 'UPSCALED' started by GSRemast21, Sep 19, 2016.

  1. GSRemast21

    GSRemast21 Well-Known Member

    Joined:
    Dec 6, 2014
    Messages:
    451
    Likes Received:
    429
    [​IMG]
    [​IMG]

    Format : Matroska
    Format version : Version 4 / Version 2
    File size : 531 MiB
    Duration : 3mn 26s
    Overall bit rate : 21.6 Mbps
    Encoded date : UTC 2016-09-17 22:24:07
    Writing application : mkvmerge v7.7.0 ('Six Voices') 64bit built on Feb 28 2015 23:39:33
    Writing library : libebml v1.3.1 + libmatroska v1.4.2

    Video
    ID : 1
    Format : AVC
    Format/Info : Advanced Video Codec
    Format profile : [email protected]
    Format settings, CABAC : Yes
    Format settings, ReFrames : 16 frames
    Codec ID : V_MPEG4/ISO/AVC
    Duration : 3mn 26s
    Bit rate : 20.0 Mbps
    Width : 1 440 pixels
    Height : 1 080 pixels
    Display aspect ratio : 4:3
    Frame rate mode : Constant
    Frame rate : 24.000 fps
    Color space : YUV
    Chroma subsampling : 4:2:0
    Bit depth : 8 bits
    Scan type : Progressive
    Bits/(Pixel*Frame) : 0.536
    Stream size : 493 MiB (93%)
    Writing library : x264 core 148 r2638 7599210
    Default : Yes
    Forced : No

    Audio
    ID : 2
    Format : PCM
    Codec ID : A_PCM/INT/LIT
    Duration : 3mn 26s
    Bit rate mode : Constant
    Bit rate : 1 536 Kbps
    Channel(s) : 2 channels
    Sampling rate : 48.0 KHz
    Frame rate : 32.001 fps (1500 spf)
    Bit depth : 16 bits
    Stream size : 37.8 MiB (7%)
    Default : Yes
    Forced : No

    Hidden Content:
    You must reply before you can see the hidden data contained here.
     
  2. Loading...


  3. andreamonger

    andreamonger Well-Known Member

    Joined:
    May 16, 2015
    Messages:
    1,001
    Likes Received:
    168
    omg me muero! graciasss
     
  4. MajorVi

    MajorVi Member

    Joined:
    Feb 12, 2016
    Messages:
    420
    Likes Received:
    10
    Thank you
     
  5. Vjeans

    Vjeans Well-Known Member

    Joined:
    May 10, 2014
    Messages:
    954
    Likes Received:
    3,017
    Thank you!
     
  6. multimediafm

    multimediafm Well-Known Member Donor

    Joined:
    Mar 27, 2014
    Messages:
    8,865
    Likes Received:
    378
    Thanks :)
    Avril Lavigne - Don't Tell Me (Upscale/Remastered, Lpcm, 1080p)
     
  7. 777josem

    777josem Well-Known Member V . I . P. Uploader

    Joined:
    Sep 1, 2014
    Messages:
    3,127
    Likes Received:
    1,723
    Thank you so much!
     
  8. andreamonger

    andreamonger Well-Known Member

    Joined:
    May 16, 2015
    Messages:
    1,001
    Likes Received:
    168
    está hermosooo, lo amooo!!
     
  9. adam dark

    adam dark Video Music Lover <3 V . I . P.

    Joined:
    Dec 5, 2013
    Messages:
    2,559
    Likes Received:
    4,322
  10. Dave

    Dave Well-Known Member

    Joined:
    Jun 2, 2015
    Messages:
    652
    Likes Received:
    333
    gracias :)
     
  11. rikylouis14

    rikylouis14 Well-Known Member

    Joined:
    Jun 27, 2016
    Messages:
    689
    Likes Received:
    334
    Obrigada! Amei
     
  12. Mike150486

    Mike150486 New Member

    Joined:
    Jul 14, 2016
    Messages:
    13
    Likes Received:
    1
    Thank you
     
  13. quake2

    quake2 Active Member

    Joined:
    Oct 11, 2014
    Messages:
    914
    Likes Received:
    53
    thanks
     
  14. willjay

    willjay Member

    Joined:
    May 13, 2016
    Messages:
    158
    Likes Received:
    5
    Thanks for this
     
  15. Schoder

    Schoder Member

    Joined:
    Jul 8, 2015
    Messages:
    153
    Likes Received:
    16
    thanks
     
  16. Plazik

    Plazik Member

    Joined:
    Oct 7, 2013
    Messages:
    38
    Likes Received:
    9
    thanks
     
  17. merrylorie

    merrylorie Member

    Joined:
    Feb 25, 2016
    Messages:
    121
    Likes Received:
    0
  18. yonita

    yonita Active Member

    Joined:
    Mar 7, 2016
    Messages:
    399
    Likes Received:
    38
    graciass
     
  19. XaiDor

    XaiDor Member

    Joined:
    Sep 22, 2016
    Messages:
    75
    Likes Received:
    3
    Thank you!
     
  20. pomodoro_2013

    pomodoro_2013 Member

    Joined:
    Nov 17, 2013
    Messages:
    338
    Likes Received:
    6
    Thank you so much
     
  21. hapiny

    hapiny Member

    Joined:
    Nov 24, 2014
    Messages:
    532
    Likes Received:
    9
    thank you!