Avril Lavigne - Complicated | (NRJHITSHD-1080i-DD2.0-IboYLDz)-HDMania

Discussion in 'NRJ HITS' started by By.YLDz, Mar 14, 2019.

  1. By.YLDz

    By.YLDz Hayley Williams Fan :) Capper

    Joined:
    Oct 7, 2013
    Messages:
    442
    Likes Received:
    4,918
    CappeD IboYLDz

    [​IMG] [​IMG] [​IMG] [​IMG] [​IMG] [​IMG] [​IMG] [​IMG] [​IMG] [​IMG]


    Format : MPEG-TS
    File size : 205 MiB
    Duration : 4 min 12 s
    Overall bit rate mode : Variable
    Overall bit rate : 6 817 kb/s

    Video
    ID : 513 (0x201)
    Menu ID : 1 (0x1)
    Format : AVC
    Format/Info : Advanced Video Codec
    Format profile : High@L4
    Format settings : CABAC / 4 Ref Frames
    Format settings, CABAC : Yes
    Format settings, ReFrames : 4 frames
    Codec ID : 27
    Duration : 4 min 12 s
    Bit rate : 6 286 kb/s
    Width : 1 920 pixels
    Height : 1 080 pixels
    Display aspect ratio : 16:9
    Frame rate : 25.000 FPS
    Standard : Component
    Color space : YUV
    Chroma subsampling : 4:2:0
    Bit depth : 8 bits
    Scan type : MBAFF
    Scan type, store method : Separated fields
    Scan order : Top Field First
    Bits/(Pixel*Frame) : 0.121
    Stream size : 189 MiB (92%)
    Color range : Limited
    Color primaries : BT.709
    Transfer characteristics : BT.709
    Matrix coefficients : BT.709

    Audio
    ID : 514 (0x202)
    Menu ID : 1 (0x1)
    Format : AC-3
    Format/Info : Audio Coding 3
    Commercial name : Dolby Digital
    Codec ID : 129
    Duration : 4 min 12 s
    Bit rate mode : Constant
    Bit rate : 192 kb/s
    Channel(s) : 2 channels
    Channel layout : L R
    Sampling rate : 48.0 kHz
    Frame rate : 31.250 FPS (1536 SPF)
    Bit depth : 16 bits
    Compression mode : Lossy
    Delay relative to video : -80 ms
    Stream size : 5.78 MiB (3%)
    Language : French
    Service kind : Complete Main

    Hidden Content:
    You must either reply or click 'Like' to see the hidden information contained here.
    Rar Pass : IboYLDz
     
    Dreamer, rhea, WaRKeR and 2 others like this.
  2. lokiavril

    lokiavril Active Member

    Joined:
    Nov 19, 2018
    Messages:
    152
    Likes Received:
    44
  3. CELOBRAZiL

    CELOBRAZiL Well-Known Member Capper V . I . P. Donor

    Joined:
    Oct 2, 2013
    Messages:
    6,585
    Likes Received:
    21,007
    Thank you so much my friend! :)
     
    By.YLDz likes this.
  4. rvden

    rvden Well-Known Member

    Joined:
    Apr 9, 2017
    Messages:
    686
    Likes Received:
    489
    Thank you!
     
  5. Ricardoxxxlo

    Ricardoxxxlo New Member

    Joined:
    Feb 27, 2018
    Messages:
    19
    Likes Received:
    3
  6. rhea

    rhea Well-Known Member

    Joined:
    Jan 6, 2014
    Messages:
    8,985
    Likes Received:
    1,376
    thank you so much
     
  7. TrendMusic

    TrendMusic Well-Known Member

    Joined:
    Oct 7, 2013
    Messages:
    1,914
    Likes Received:
    185