Avril Lavigne - Complicated (MULTISHOW.HD.1080i.DD5.1).-Crusha

Discussion in 'MULTISHOW HD' started by Crusha, Oct 12, 2017.

  1. Crusha

    Crusha Well-Known Member Capper V . I . P.

    Joined:
    Oct 15, 2014
    Messages:
    2,356
    Likes Received:
    2,523
    [​IMG]

    Code:
    General
    ID                             : 1 (0x1)
    Complete name                  : Avril Lavigne - Complicated (MULTISHOW.HD.1080i.DD5.1).-Crusha.ts
    Format                         : MPEG-TS
    File size                      : 231 MiB
    Duration                       : 4mn 12s
    Overall bit rate mode          : Variable
    Overall bit rate               : 7 667 Kbps
    
    Video
    ID                             : 2593 (0xA21)
    Menu ID                        : 2542 (0x9EE)
    Format                         : AVC
    Format/Info                    : Advanced Video Codec
    Format profile                 : [email protected]
    Format settings, CABAC         : Yes
    Format settings, ReFrames      : 4 frames
    Codec ID                       : 27
    Duration                       : 4mn 12s
    Bit rate                       : 6 900 Kbps
    Width                          : 1 920 pixels
    Height                         : 1 080 pixels
    Display aspect ratio           : 16:9
    Frame rate                     : 29.970 fps
    Standard                       : Component
    Color space                    : YUV
    Chroma subsampling             : 4:2:0
    Bit depth                      : 8 bits
    Scan type                      : MBAFF
    Scan order                     : Top Field First
    Bits/(Pixel*Frame)             : 0.111
    Stream size                    : 207 MiB (90%)
    Color range                    : Limited
    Color primaries                : BT.709
    Transfer characteristics       : BT.709
    Matrix coefficients            : BT.709
    
    Audio
    ID                             : 3593 (0xE09)
    Menu ID                        : 2542 (0x9EE)
    Format                         : AC-3
    Format/Info                    : Audio Coding 3
    Mode extension                 : CM (complete main)
    Format settings, Endianness    : Big
    Codec ID                       : 6
    Duration                       : 4mn 12s
    Bit rate mode                  : Constant
    Bit rate                       : 384 Kbps
    Channel(s)                     : 6 channels
    Channel positions              : Front: L C R, Side: L R, LFE
    Sampling rate                  : 48.0 KHz
    Bit depth                      : 16 bits
    Compression mode               : Lossy
    Delay relative to video        : -233ms
    Stream size                    : 11.6 MiB (5%)
    Language                       : Portuguese
    
    
    Hidden Content:
    You must reply before you can see the hidden data contained here.
    Password: crusha
     
  2. 777josem

    777josem ProRes 1080p LPCM V . I . P. Uploader

    Joined:
    Sep 1, 2014
    Messages:
    3,584
    Likes Received:
    2,753
    Ya se te extrañaba amigo :grin:
     
  3. guiwstj

    guiwstj Member

    Joined:
    Oct 7, 2016
    Messages:
    151
    Likes Received:
    4
    thanks
     
  4. Pedro Correia

    Pedro Correia Active Member

    Joined:
    Apr 17, 2014
    Messages:
    959
    Likes Received:
    93
    Thank you so much!
     
  5. Jorge Barrionuevo

    Jorge Barrionuevo Well-Known Member

    Joined:
    Jun 9, 2015
    Messages:
    1,251
    Likes Received:
    473
    Muchas Gracias!
     
  6. Crusha

    Crusha Well-Known Member Capper V . I . P.

    Joined:
    Oct 15, 2014
    Messages:
    2,356
    Likes Received:
    2,523
    Hola!

    He estado muy ocupado este año, por lo cual he estado muy ausente.

    Pero pronto estaré activo nuevamente.

    Saludos. :)
     
  7. 777josem

    777josem ProRes 1080p LPCM V . I . P. Uploader

    Joined:
    Sep 1, 2014
    Messages:
    3,584
    Likes Received:
    2,753
    :victory: Saludos!