Avril Lavigne - Complicated (1080p Upscale)

Discussion in 'UPSCALED' started by adam dark, Dec 6, 2016.

  1. cesar josep liuses yesus

    cesar josep liuses yesus Member

    Joined:
    Dec 22, 2016
    Messages:
    113
    Likes Received:
    0
  2. alex1321

    alex1321 Member

    Joined:
    Oct 11, 2016
    Messages:
    42
    Likes Received:
    1
    thabks
     
  3. chernan

    chernan New Member

    Joined:
    Dec 28, 2016
    Messages:
    4
    Likes Received:
    0
    thanks
    Avril Lavigne - Complicated (1080p Upscale)

    [​IMG]
    [​IMG]
    [​IMG]
    [​IMG]
    [​IMG]
    [​IMG]
    Code:
    General
    Complete name                  : Avril Lavigne - Complicated (1080p Upscale).mov
    Format                         : MPEG-4
    Format profile                 : Base Media
    Codec ID                       : isom (isom/avc1/iso6)
    File size                      : 241 MiB
    Duration                       : 4 min 20 s
    Overall bit rate mode          : Variable
    Overall bit rate               : 7 748 kb/s
    Encoded date                   : UTC 2016-12-05 14:54:05
    Tagged date                    : UTC 2016-12-05 14:54:05
    
    Video
    ID                             : 1
    Format                         : AVC
    Format/Info                    : Advanced Video Codec
    Format profile                 : [email protected]
    Format settings, CABAC         : Yes
    Format settings, ReFrames      : 4 frames
    Codec ID                       : avc1
    Codec ID/Info                  : Advanced Video Coding
    Duration                       : 4 min 20 s
    Bit rate                       : 7 574 kb/s
    Maximum bit rate               : 15.0 Mb/s
    Width                          : 1 440 pixels
    Height                         : 1 080 pixels
    Display aspect ratio           : 4:3
    Frame rate mode                : Constant
    Frame rate                     : 29.970 (30000/1001) FPS
    Original frame rate            : 29.970 (29970/1000) FPS
    Color space                    : YUV
    Chroma subsampling             : 4:2:0
    Bit depth                      : 8 bits
    Scan type                      : Progressive
    Bits/(Pixel*Frame)             : 0.162
    Stream size                    : 235 MiB (98%)
    Title                          : [email protected]
    Writing library                : x264 core 146 r2538 121396c
    Encoding settings              : cabac=1 / ref=2 / deblock=1:0:0 / analyse=0x3:0x131 / me=umh / subme=6 / psy=1 / psy_rd=1.00:0.00 / mixed_ref=1 / me_range=16 / chroma_me=1 / trellis=1 / 8x8dct=1 / cqm=0 / deadzone=21,11 / fast_pskip=1 / chroma_qp_offset=-2 / threads=12 / lookahead_threads=2 / sliced_threads=0 / nr=0 / decimate=1 / interlaced=0 / bluray_compat=0 / constrained_intra=0 / bframes=3 / b_pyramid=2 / b_adapt=1 / b_bias=0 / direct=1 / weightb=1 / open_gop=0 / weightp=2 / keyint=250 / keyint_min=25 / scenecut=40 / intra_refresh=0 / rc_lookahead=40 / rc=crf / mbtree=1 / crf=21.0 / qcomp=0.60 / qpmin=0 / qpmax=69 / qpstep=4 / ip_ratio=1.40 / aq=1:1.00
    Encoded date                   : UTC 2016-12-05 14:54:05
    Tagged date                    : UTC 2016-12-05 14:54:07
    
    Audio
    ID                             : 2
    Format                         : AAC
    Format/Info                    : Advanced Audio Codec
    Format profile                 : LC
    Codec ID                       : 40
    Duration                       : 4 min 20 s
    Bit rate mode                  : Variable
    Bit rate                       : 172 kb/s
    Maximum bit rate               : 181 kb/s
    Channel(s)                     : 2 channels
    Channel positions              : Front: L R
    Sampling rate                  : 48.0 kHz
    Frame rate                     : 46.875 FPS (1024 spf)
    Compression mode               : Lossy
    Stream size                    : 5.34 MiB (2%)
    Encoded date                   : UTC 2016-12-05 14:48:13
    Tagged date                    : UTC 2016-12-05 14:54:07
    ***Hidden content cannot be quoted.***
    [/QUOTE]
     
  4. el_inigualable

    el_inigualable Member

    Joined:
    Dec 25, 2016
    Messages:
    101
    Likes Received:
    2
    A PROBAR !!!
     
  5. pomodoro_2013

    pomodoro_2013 Member

    Joined:
    Nov 17, 2013
    Messages:
    328
    Likes Received:
    4
    thank you so much
     
  6. misscoak

    misscoak Member

    Joined:
    Dec 22, 2016
    Messages:
    334
    Likes Received:
    2
    Thank you!
     
  7. airj23

    airj23 Member

    Joined:
    Apr 17, 2014
    Messages:
    93
    Likes Received:
    0
    Thanks
     
  8. z3ro

    z3ro Member

    Joined:
    Nov 23, 2016
    Messages:
    105
    Likes Received:
    0
    Thankyou dude
     
  9. hanshermann

    hanshermann Active Member

    Joined:
    Aug 24, 2016
    Messages:
    1,278
    Likes Received:
    1
    wahts taht
     
  10. diegolima91

    diegolima91 New Member

    Joined:
    Oct 8, 2016
    Messages:
    23
    Likes Received:
    1
    Thaanks!:D
     
  11. Johan Pinzon

    Johan Pinzon Member

    Joined:
    Aug 15, 2016
    Messages:
    289
    Likes Received:
    11
  12. TheKenster

    TheKenster New Member

    Joined:
    Jan 8, 2017
    Messages:
    13
    Likes Received:
    0
  13. shing000

    shing000 Member

    Joined:
    Mar 13, 2016
    Messages:
    527
    Likes Received:
    12
    thanks
     
  14. Djodjara

    Djodjara Gwen Fan Capper

    Joined:
    Sep 6, 2014
    Messages:
    634
    Likes Received:
    1,060
    Thank you so much :D
     
  15. Tiago

    Tiago Member

    Joined:
    Dec 7, 2013
    Messages:
    934
    Likes Received:
    13
    thank you
     
  16. Fernando

    Fernando Member

    Joined:
    Jul 22, 2014
    Messages:
    215
    Likes Received:
    2
  17. xavier777

    xavier777 Member

    Joined:
    Aug 29, 2016
    Messages:
    348
    Likes Received:
    21
    Thanks
     
  18. yilder1

    yilder1 Active Member

    Joined:
    Aug 25, 2016
    Messages:
    235
    Likes Received:
    27
    buen aporte amigo
     
  19. aflawlessmashup

    aflawlessmashup New Member

    Joined:
    Jan 15, 2017
    Messages:
    2
    Likes Received:
    0
  20. someone42

    someone42 Member

    Joined:
    Jan 15, 2017
    Messages:
    56
    Likes Received:
    0