Aventura - Obsesion (MTVIDOL-1080i-DD2.0-Djodjara)-HDMania

Discussion in 'MTV IDOL' started by Djodjara, Apr 29, 2015.

  1. Djodjara

    Djodjara Gwen Fan Capper V . I . P.

    Joined:
    Sep 6, 2014
    Messages:
    1,445
    Likes Received:
    3,372
    Aventura - Obsesion (MTV Idol-1080i-Djodjara)-HDMania

    [​IMG]
    [​IMG]

    General:
    ID : 1 (0x1)
    Format : MPEG-TS
    File size : 125 MiB
    Duration : 3mn 3s
    Overall bit rate mode : Variable
    Overall bit rate : 5 726 Kbps

    Video:
    ID : 310 (0x136)
    Menu ID : 1 (0x1)
    Format : AVC
    Format/Info : Advanced Video Codec
    Format profile : High@L4.0
    Format settings, CABAC : Yes
    Format settings, ReFrames : 4 frames
    Codec ID : 27
    Duration : 3mn 3s
    Bit rate : 5 249 Kbps
    Width : 1 920 pixels
    Height : 1 080 pixels
    Display aspect ratio : 16:9
    Frame rate : 25.000 fps
    Standard : Component
    Color space : YUV
    Chroma subsampling : 4:2:0
    Bit depth : 8 bits
    Scan type : MBAFF
    Scan order : Top Field First
    Bits/(Pixel*Frame) : 0.101
    Stream size : 115 MiB (92%)
    Color primaries : BT.709
    Transfer characteristics : BT.709
    Matrix coefficients : BT.709
    Color range : Limited

    Audio:
    ID : 321 (0x141)
    Menu ID : 1 (0x1)
    Format : AC-3
    Format/Info : Audio Coding 3
    Mode extension : CM (complete main)
    Format settings, Endianness : Big
    Codec ID : 6
    Duration : 3mn 3s
    Bit rate mode : Constant
    Bit rate : 192 Kbps
    Channel(s) : 2 channels
    Channel positions : Front: L R
    Sampling rate : 48.0 KHz
    Bit depth : 16 bits
    Compression mode : Lossy
    Stream size : 4.19 MiB (3%)
    Language : French

    Hidden Content:
    You must reply before you can see the hidden data contained here.
     
  2. Loading...


  3. 777josem

    777josem ProRes 1080p LPCM V . I . P. Uploader

    Joined:
    Sep 1, 2014
    Messages:
    3,886
    Likes Received:
    5,475
    Thank you!
     
  4. 777josem

    777josem ProRes 1080p LPCM V . I . P. Uploader

    Joined:
    Sep 1, 2014
    Messages:
    3,886
    Likes Received:
    5,475
    Djodjara, just a little question...:victory:
    50 meilleurs clips LATINO, shows some of these artists?

    Juanes, Vicentico, Belanova, Julieta Venegas, Miranda!, Cafe Tacuba, Juan Luis Guerra, Enanitos verdes, Andrés Calamaro, Panda, Hombres G, Reik, Vilma Palma, Alejandra Guzman, Fey, Ha ash, Miguel Bose, Thalia, Mana, Gian Marco, Autenticos decadentes, Fito Paez

    It's just curiosity
    :)
     
  5. Djodjara

    Djodjara Gwen Fan Capper V . I . P.

    Joined:
    Sep 6, 2014
    Messages:
    1,445
    Likes Received:
    3,372
    i watched from 16th place, so i don't know if one of those artist were before, sorry :/
     
    777josem likes this.
  6. 777josem

    777josem ProRes 1080p LPCM V . I . P. Uploader

    Joined:
    Sep 1, 2014
    Messages:
    3,886
    Likes Received:
    5,475
    Thank you! :victory:
     
  7. Crusha

    Crusha Well-Known Member Capper V . I . P.

    Joined:
    Oct 15, 2014
    Messages:
    2,574
    Likes Received:
    4,159
    thank you :)
     
  8. cero

    cero Member

    Joined:
    Nov 1, 2013
    Messages:
    160
    Likes Received:
    6
    thanks good post
     
  9. Crusha

    Crusha Well-Known Member Capper V . I . P.

    Joined:
    Oct 15, 2014
    Messages:
    2,574
    Likes Received:
    4,159
    mas clips latinos porfavor

    gracias!!! :D
     
  10. rhea

    rhea Well-Known Member

    Joined:
    Jan 6, 2014
    Messages:
    11,480
    Likes Received:
    2,207
    thank you so much!
     
  11. tf135

    tf135 Well-Known Member

    Joined:
    Nov 14, 2014
    Messages:
    4,875
    Likes Received:
    288
    thank you
     
  12. Loverfire

    Loverfire New Member

    Joined:
    Mar 10, 2015
    Messages:
    17
    Likes Received:
    0
    THANK YOU VERY MUCH BROTHER
     
  13. dapape

    dapape Member

    Joined:
    Jun 9, 2014
    Messages:
    133
    Likes Received:
    1
    Nice XD
     
  14. Vinny

    Vinny Well-Known Member

    Joined:
    Dec 26, 2013
    Messages:
    4,905
    Likes Received:
    84
    Thanks! ;D
     
  15. Humberto

    Humberto Member

    Joined:
    Dec 9, 2013
    Messages:
    290
    Likes Received:
    17
    waoo thanks
     
  16. tomkins

    tomkins Active Member

    Joined:
    Mar 28, 2014
    Messages:
    258
    Likes Received:
    168
    thank you so much
    for the video!
    :D
     
  17. akon111

    akon111 Well-Known Member

    Joined:
    Dec 29, 2015
    Messages:
    683
    Likes Received:
    446
    thanks
     
  18. Jorge Barrionuevo

    Jorge Barrionuevo Well-Known Member

    Joined:
    Jun 9, 2015
    Messages:
    2,237
    Likes Received:
    1,844
    GRACIAS!
     
  19. kingover

    kingover Member

    Joined:
    Jun 21, 2016
    Messages:
    103
    Likes Received:
    12
  20. yilder1

    yilder1 Well-Known Member

    Joined:
    Aug 25, 2016
    Messages:
    1,220
    Likes Received:
    229
    thanks!
     
  21. tapions

    tapions Well-Known Member

    Joined:
    Aug 30, 2016
    Messages:
    1,251
    Likes Received:
    127
    gracias