SERIES Avatar: The Last Airbender - Season 1 [Upscaled] 1080p Amazon WEB-DL DD+ 2.0 H.264-CtrlHD

Discussion in 'Cinema Center' started by nyuszika7h, Jan 12, 2018.

  1. nyuszika7h

    nyuszika7h Well-Known Member

    Joined:
    May 18, 2016
    Messages:
    485
    Likes Received:
    1,462

    This is a new improved version released by Nickelodeon. It has less artifacts, but it's still an upscale.

    [​IMG] [​IMG] [​IMG] [​IMG]

    Code:
    General
    Unique ID                                : 199331290591238753626479254734974018358 (0x95F5CF655AD66F298B36FE395834E336)
    Complete name                            : Avatar.The.Last.Airbender.S01E01.The.Boy.in.the.Iceberg.1080p.AMZN.WEB-DL.DD+2.0.H.264-CtrlHD.mkv
    Format                                   : Matroska
    Format version                           : Version 4 / Version 2
    File size                                : 865 MiB
    Duration                                 : 23 min 48 s
    Overall bit rate mode                    : Variable
    Overall bit rate                         : 5 078 kb/s
    Encoded date                             : UTC 2017-12-16 04:04:58
    Writing application                      : mkvmerge v18.0.0 ('Apricity') 64-bit
    Writing library                          : libebml v1.3.5 + libmatroska v1.4.8
    
    Video
    ID                                       : 1
    Format                                   : AVC
    Format/Info                              : Advanced Video Codec
    Format profile                           : High@L4
    Format settings                          : CABAC / 4 Ref Frames
    Format settings, CABAC                   : Yes
    Format settings, ReFrames                : 4 frames
    Codec ID                                 : V_MPEG4/ISO/AVC
    Duration                                 : 23 min 48 s
    Bit rate mode                            : Variable
    Bit rate                                 : 4 853 kb/s
    Maximum bit rate                         : 15.0 Mb/s
    Width                                    : 1 920 pixels
    Height                                   : 1 080 pixels
    Display aspect ratio                     : 16:9
    Frame rate mode                          : Constant
    Frame rate                               : 23.976 (24000/1001) FPS
    Color space                              : YUV
    Chroma subsampling                       : 4:2:0
    Bit depth                                : 8 bits
    Scan type                                : Progressive
    Bits/(Pixel*Frame)                       : 0.098
    Stream size                              : 826 MiB (96%)
    Default                                  : Yes
    Forced                                   : No
    Color range                              : Limited
    Color primaries                          : BT.709
    Transfer characteristics                 : BT.709
    Matrix coefficients                      : BT.709
    
    Audio
    ID                                       : 2
    Format                                   : E-AC-3
    Format/Info                              : Enhanced Audio Coding 3
    Codec ID                                 : A_EAC3
    Duration                                 : 23 min 47 s
    Bit rate mode                            : Constant
    Bit rate                                 : 224 kb/s
    Channel(s)                               : 2 channels
    Channel positions                        : Front: L R
    Sampling rate                            : 48.0 kHz
    Frame rate                               : 187.500 FPS (256 SPF)
    Compression mode                         : Lossy
    Stream size                              : 38.1 MiB (4%)
    Language                                 : English
    Service kind                             : Complete Main
    Default                                  : Yes
    Forced                                   : No
    
    Text
    ID                                       : 3
    Format                                   : UTF-8
    Codec ID                                 : S_TEXT/UTF8
    Codec ID/Info                            : UTF-8 Plain Text
    Duration                                 : 22 min 39 s
    Bit rate                                 : 59 b/s
    Count of elements                        : 436
    Stream size                              : 9.93 KiB (0%)
    Language                                 : English
    Default                                  : Yes
    Forced                                   : No
    

    Code:
    Avatar.The.Last.Airbender.S01E01.The.Boy.in.the.Iceberg.1080p.AMZN.WEB-DL.DD+2.0.H.264-CtrlHD.mkv
    Avatar.The.Last.Airbender.S01E02.The.Avatar.Returns.1080p.AMZN.WEB-DL.DD+2.0.H.264-CtrlHD.mkv
    Avatar.The.Last.Airbender.S01E03.The.Southern.Air.Temple.1080p.AMZN.WEB-DL.DD+2.0.H.264-CtrlHD.mkv
    Avatar.The.Last.Airbender.S01E04.The.Warriors.of.Kyoshi.1080p.AMZN.WEB-DL.DD+2.0.H.264-CtrlHD.mkv
    Avatar.The.Last.Airbender.S01E05.The.King.of.Omashu.1080p.AMZN.WEB-DL.DD+2.0.H.264-CtrlHD.mkv
    Avatar.The.Last.Airbender.S01E06.Imprisoned.1080p.AMZN.WEB-DL.DD+2.0.H.264-CtrlHD.mkv
    Avatar.The.Last.Airbender.S01E07.The.Spirit.World.Winter.Solstice.(1).1080p.AMZN.WEB-DL.DD+2.0.H.264-CtrlHD.mkv
    Avatar.The.Last.Airbender.S01E08.Avatar.Roku.Winter.Solstice.(2).1080p.AMZN.WEB-DL.DD+2.0.H.264-CtrlHD.mkv
    Avatar.The.Last.Airbender.S01E09.The.Waterbending.Scroll.1080p.AMZN.WEB-DL.DD+2.0.H.264-CtrlHD.mkv
    Avatar.The.Last.Airbender.S01E10.Jet.1080p.AMZN.WEB-DL.DD+2.0.H.264-CtrlHD.mkv
    Avatar.The.Last.Airbender.S01E11.The.Great.Divide.1080p.AMZN.WEB-DL.DD+2.0.H.264-CtrlHD.mkv
    Avatar.The.Last.Airbender.S01E12.The.Storm.1080p.AMZN.WEB-DL.DD+2.0.H.264-CtrlHD.mkv
    Avatar.The.Last.Airbender.S01E13.The.Blue.Spirit.1080p.AMZN.WEB-DL.DD+2.0.H.264-CtrlHD.mkv
    Avatar.The.Last.Airbender.S01E14.The.Fortuneteller.1080p.AMZN.WEB-DL.DD+2.0.H.264-CtrlHD.mkv
    Avatar.The.Last.Airbender.S01E15.Bato.of.the.Water.Tribe.1080p.AMZN.WEB-DL.DD+2.0.H.264-CtrlHD.mkv
    Avatar.The.Last.Airbender.S01E16.The.Deserter.1080p.AMZN.WEB-DL.DD+2.0.H.264-CtrlHD.mkv
    Avatar.The.Last.Airbender.S01E17.The.Northern.Air.Temple.1080p.AMZN.WEB-DL.DD+2.0.H.264-CtrlHD.mkv
    Avatar.The.Last.Airbender.S01E18.The.Waterbending.Master.1080p.AMZN.WEB-DL.DD+2.0.H.264-CtrlHD.mkv
    Avatar.The.Last.Airbender.S01E19.The.Siege.of.the.North.(1).1080p.AMZN.WEB-DL.DD+2.0.H.264-CtrlHD.mkv
    Avatar.The.Last.Airbender.S01E20.The.Siege.of.the.North.(2).1080p.AMZN.WEB-DL.DD+2.0.H.264-CtrlHD.mkv
    

    Hidden Content:
    You must either reply or click 'Like' to see the hidden information contained here.
     
    Last edited: Jan 13, 2018
    ngozz, Fromq, kandank and 8 others like this.
  2. Loading...


  3. Hossein Enr7que

    Hossein Enr7que Enriquette . ZQUAD . XO V . I . P. Uploader

    Joined:
    May 13, 2016
    Messages:
    1,377
    Likes Received:
    4,424
    Thank You So Much:hearteyes::hearteyes::hearteyes:
     
  4. Dark One

    Dark One Active Member

    Joined:
    May 29, 2017
    Messages:
    424
    Likes Received:
    96
    Thank you
     
  5. lacolle78

    lacolle78 Member

    Joined:
    Apr 3, 2017
    Messages:
    35
    Likes Received:
    5
    Thank you so much I love Avatar !
     
  6. aria99

    aria99 Active Member

    Joined:
    Jun 3, 2015
    Messages:
    448
    Likes Received:
    77
    Where's season 2 n 3?
     
  7. nyuszika7h

    nyuszika7h Well-Known Member

    Joined:
    May 18, 2016
    Messages:
    485
    Likes Received:
    1,462
    It costs $30 per season, so CtrlHD hasn't bought them yet, but I think they will buy them eventually. I'll get a notification when they are uploaded and I'll also post them here.
     
    Dark One likes this.
  8. Samuel

    Samuel Well-Known Member

    Joined:
    Apr 12, 2016
    Messages:
    1,309
    Likes Received:
    486
    I'd rather buy the iTunes version. It looks ok to me.
    [​IMG]
     
    Dark One likes this.
  9. Tiksooo78

    Tiksooo78 New Member

    Joined:
    Jan 22, 2018
    Messages:
    7
    Likes Received:
    1
    Thank you so much! Always appreciated!
     
  10. OnkelAdi

    OnkelAdi Active Member Donor

    Joined:
    Dec 15, 2017
    Messages:
    131
    Likes Received:
    25
    nice!
     
  11. channel003

    channel003 Well-Known Member

    Joined:
    Nov 23, 2013
    Messages:
    719
    Likes Received:
    367
    Thank you!
     
  12. andersonxjunior

    andersonxjunior Anderson

    Joined:
    Feb 26, 2016
    Messages:
    338
    Likes Received:
    125
  13. FaceOfBoe

    FaceOfBoe Active Member

    Joined:
    Jul 22, 2018
    Messages:
    170
    Likes Received:
    40
    thankss