Austin Mahone feat. Pitbull - Mmm Yeah (BridgeHD-1080i-MP2-Olgold)-HDMania

Discussion in 'Bridge HD' started by Olgold, Oct 12, 2016.

  1. Olgold

    Olgold Well-Known Member Capper

    Joined:
    Aug 19, 2015
    Messages:
    386
    Likes Received:
    1,326
    Austin Mahone feat. Pitbull - Mmm Yeah
    [​IMG]
    General
    Format : MPEG-TS
    File size : 203 MiB
    Duration : 3 min 49 s
    Overall bit rate mode : Variable
    Overall bit rate : 7 395 kb/s

    Video
    Format : AVC
    Format/Info : Advanced Video Codec
    Format profile : [email protected]
    Format settings, CABAC : Yes
    Format settings, ReFrames : 4 frames
    Duration : 3 min 48 s
    Bit rate : 6 836 kb/s
    Width : 1 920 pixels
    Height : 1 080 pixels
    Display aspect ratio : 16:9
    Frame rate : 25.000 FPS
    Standard : Component
    Color space : YUV
    Chroma subsampling : 4:2:0
    Bit depth : 8 bits
    Scan type : Interlaced
    Scan type, store method : Separated fields
    Scan order : Top Field First
    Bits/(Pixel*Frame) : 0.132
    Stream size : 186 MiB (92%)
    Color range : Limited

    Audio
    Format : MPEG Audio
    Format version : Version 1
    Format profile : Layer 2
    Duration : 3 min 49 s
    Bit rate mode : Constant
    Bit rate : 192 kb/s
    Channel(s) : 2 channels
    Sampling rate : 48.0 kHz
    Compression mode : Lossy
    Delay relative to video : 99 ms
    Stream size : 5.26 MiB (3%)
    Password: Olgold
    Hidden Content:
    You must reply before you can see the hidden data contained here.
     
    CELOBRAZiL and rhea like this.
  2. rhea

    rhea Well-Known Member

    Joined:
    Jan 6, 2014
    Messages:
    5,399
    Likes Received:
    260
    thank you so much
     
  3. CELOBRAZiL

    CELOBRAZiL Well-Known Member Capper V . I . P. Donor

    Joined:
    Oct 2, 2013
    Messages:
    1,756
    Likes Received:
    4,933
    Thank you so much! :)
     
  4. 3veronicas

    3veronicas Member

    Joined:
    Aug 26, 2016
    Messages:
    699
    Likes Received:
    15
    Thanks!
     
  5. kokomama

    kokomama Member

    Joined:
    Oct 15, 2015
    Messages:
    232
    Likes Received:
    3
    thanks