FEED Ariana Grande - Z100 iHeart Radio Jingle Ball 2016 - 12-09-2016 CW Network Feed 1080i 36mbps ALANIS

Discussion in 'HD Live Performances' started by hanshermann, Dec 12, 2017.

  1. selenagomez23

    selenagomez23 Member

    Joined:
    Aug 20, 2016
    Messages:
    394
    Likes Received:
    5
  2. mariahpam

    mariahpam Member

    Joined:
    Dec 3, 2017
    Messages:
    281
    Likes Received:
    13
    queen[​IMG]

    Ariana Grande - Z100 iHeart Radio Jingle Ball 2016 - MSG, NYC, 12-09-2016 CW Network Feed 1080i 36mb ALANIS

    Code:
    General
    ID                          : 1 (0x1)
    Complete name               : Ariana Grande - Z100 iHeart Radio Jingle Ball 2016 - MSG, NYC, 12-09-2016 CW Network Feed 1080i 36mbps-ALANiS.ts
    Format                      : MPEG-TS
    File size                   : 1.58 GiB
    Duration                    : 5 min 50 s
    Overall bit rate mode       : Variable
    Overall bit rate            : 38.7 Mb/s
    Movie name                  : RCAM6093H
    
    Video
    ID                          : 4113 (0x1011)
    Menu ID                     : 1 (0x1)
    Format                      : MPEG Video
    Format version              : Version 2
    Format profile              : 4:2:2@High
    Format settings, BVOP       : Yes
    Format settings, Matrix     : Custom
    Format settings, GOP        : M=3, N=15
    Format settings, picture st : Frame
    Codec ID                    : 2
    Duration                    : 5 min 50 s
    Bit rate mode               : Constant
    Bit rate                    : 34.7 Mb/s
    Maximum bit rate            : 35.5 Mb/s
    Width                       : 1 920 pixels
    Height                      : 1 080 pixels
    Display aspect ratio        : 16:9
    Frame rate                  : 29.970 (30000/1001) FPS
    Standard                    : Component
    Color space                 : YUV
    Chroma subsampling          : 4:2:2
    Bit depth                   : 8 bits
    Scan type                   : Interlaced
    Scan order                  : Top Field First
    Compression mode            : Lossy
    Bits/(Pixel*Frame)          : 0.559
    Time code of first frame    : 00:00:00;00
    Time code source            : Group of pictures header
    GOP, Open/Closed            : Open
    GOP, Open/Closed of first f : Closed
    Stream size                 : 1.42 GiB (90%)
    Color primaries             : BT.709
    Transfer characteristics    : BT.709
    Matrix coefficients         : BT.709
    
    Audio #1
    ID                          : 4352 (0x1100)
    Menu ID                     : 1 (0x1)
    Format                      : MPEG Audio
    Format version              : Version 1
    Format profile              : Layer 2
    Mode                        : Joint stereo
    Codec ID                    : 3
    Duration                    : 5 min 50 s
    Bit rate mode               : Constant
    Bit rate                    : 256 kb/s
    Channel(s)                  : 2 channels
    Sampling rate               : 48.0 kHz
    Compression mode            : Lossy
    Delay relative to video     : -18 ms
    Stream size                 : 10.7 MiB (1%)
    Language                    : English
    
    Audio #2
    ID                          : 4353 (0x1101)
    Menu ID                     : 1 (0x1)
    Format                      : DTS
    Format/Info                 : Digital Theater Systems
    Mode                        : 16
    Format settings, Endianness : Big
    Codec ID                    : 134
    Duration                    : 5 min 50 s
    Bit rate mode               : Constant
    Bit rate                    : 1 509 kb/s
    Channel(s)                  : 2 channels
    Channel positions           : Front: L R
    Sampling rate               : 48.0 kHz
    Frame rate                  : 93.750 FPS (512 spf)
    Bit depth                   : 24 bits
    Compression mode            : Lossy
    Delay relative to video     : -26 ms
    Stream size                 : 63.1 MiB (4%)
    
    Audio #3
    ID                          : 4354 (0x1102)
    Menu ID                     : 1 (0x1)
    Format                      : MPEG Audio
    Format version              : Version 1
    Format profile              : Layer 2
    Mode extension              : Intensity Stereo + MS Stereo
    Codec ID                    : 3
    Duration                    : 5 min 50 s
    Bit rate mode               : Constant
    Bit rate                    : 256 kb/s
    Channel(s)                  : 2 channels
    Sampling rate               : 48.0 kHz
    Compression mode            : Lossy
    Delay relative to video     : -30 ms
    Stream size                 : 10.7 MiB (1%)
    Language                    : English
    ***Hidden content cannot be quoted.***[/QUOTE]
     
  3. apl3

    apl3 Well-Known Member

    Joined:
    Jun 11, 2017
    Messages:
    1,585
    Likes Received:
    40
    thanks
     
  4. inactive1326

    inactive1326 Member

    Joined:
    May 25, 2017
    Messages:
    80
    Likes Received:
    11
    thanks
     
  5. marlexdark

    marlexdark Member

    Joined:
    Apr 3, 2017
    Messages:
    143
    Likes Received:
    12
    valeu
     
  6. abcde54321

    abcde54321 Well-Known Member

    Joined:
    Apr 6, 2014
    Messages:
    1,023
    Likes Received:
    29
    Ariana Grande - Z100 iHeart Radio Jingle Ball 2016 - MSG, NYC, 12-09-2016 CW Network Feed 1080i 36mb ALANIS

    Code:
    General
    ID                          : 1 (0x1)
    Complete name               : Ariana Grande - Z100 iHeart Radio Jingle Ball 2016 - MSG, NYC, 12-09-2016 CW Network Feed 1080i 36mbps-ALANiS.ts
    Format                      : MPEG-TS
    File size                   : 1.58 GiB
    Duration                    : 5 min 50 s
    Overall bit rate mode       : Variable
    Overall bit rate            : 38.7 Mb/s
    Movie name                  : RCAM6093H
    
    Video
    ID                          : 4113 (0x1011)
    Menu ID                     : 1 (0x1)
    Format                      : MPEG Video
    Format version              : Version 2
    Format profile              : 4:2:2@High
    Format settings, BVOP       : Yes
    Format settings, Matrix     : Custom
    Format settings, GOP        : M=3, N=15
    Format settings, picture st : Frame
    Codec ID                    : 2
    Duration                    : 5 min 50 s
    Bit rate mode               : Constant
    Bit rate                    : 34.7 Mb/s
    Maximum bit rate            : 35.5 Mb/s
    Width                       : 1 920 pixels
    Height                      : 1 080 pixels
    Display aspect ratio        : 16:9
    Frame rate                  : 29.970 (30000/1001) FPS
    Standard                    : Component
    Color space                 : YUV
    Chroma subsampling          : 4:2:2
    Bit depth                   : 8 bits
    Scan type                   : Interlaced
    Scan order                  : Top Field First
    Compression mode            : Lossy
    Bits/(Pixel*Frame)          : 0.559
    Time code of first frame    : 00:00:00;00
    Time code source            : Group of pictures header
    GOP, Open/Closed            : Open
    GOP, Open/Closed of first f : Closed
    Stream size                 : 1.42 GiB (90%)
    Color primaries             : BT.709
    Transfer characteristics    : BT.709
    Matrix coefficients         : BT.709
    
    Audio #1
    ID                          : 4352 (0x1100)
    Menu ID                     : 1 (0x1)
    Format                      : MPEG Audio
    Format version              : Version 1
    Format profile              : Layer 2
    Mode                        : Joint stereo
    Codec ID                    : 3
    Duration                    : 5 min 50 s
    Bit rate mode               : Constant
    Bit rate                    : 256 kb/s
    Channel(s)                  : 2 channels
    Sampling rate               : 48.0 kHz
    Compression mode            : Lossy
    Delay relative to video     : -18 ms
    Stream size                 : 10.7 MiB (1%)
    Language                    : English
    
    Audio #2
    ID                          : 4353 (0x1101)
    Menu ID                     : 1 (0x1)
    Format                      : DTS
    Format/Info                 : Digital Theater Systems
    Mode                        : 16
    Format settings, Endianness : Big
    Codec ID                    : 134
    Duration                    : 5 min 50 s
    Bit rate mode               : Constant
    Bit rate                    : 1 509 kb/s
    Channel(s)                  : 2 channels
    Channel positions           : Front: L R
    Sampling rate               : 48.0 kHz
    Frame rate                  : 93.750 FPS (512 spf)
    Bit depth                   : 24 bits
    Compression mode            : Lossy
    Delay relative to video     : -26 ms
    Stream size                 : 63.1 MiB (4%)
    
    Audio #3
    ID                          : 4354 (0x1102)
    Menu ID                     : 1 (0x1)
    Format                      : MPEG Audio
    Format version              : Version 1
    Format profile              : Layer 2
    Mode extension              : Intensity Stereo + MS Stereo
    Codec ID                    : 3
    Duration                    : 5 min 50 s
    Bit rate mode               : Constant
    Bit rate                    : 256 kb/s
    Channel(s)                  : 2 channels
    Sampling rate               : 48.0 kHz
    Compression mode            : Lossy
    Delay relative to video     : -30 ms
    Stream size                 : 10.7 MiB (1%)
    Language                    : English
     
  7. Evens01

    Evens01 Member

    Joined:
    Feb 5, 2016
    Messages:
    505
    Likes Received:
    8
    thank you
     
  8. rcj

    rcj Active Member

    Joined:
    May 11, 2016
    Messages:
    980
    Likes Received:
    68
    Thank U!
     
  9. Vinny

    Vinny Well-Known Member

    Joined:
    Dec 26, 2013
    Messages:
    4,344
    Likes Received:
    59
    Thanks!
     
  10. Kevin

    Kevin Member

    Joined:
    May 28, 2014
    Messages:
    125
    Likes Received:
    9
    thanksss
     
  11. jcm3

    jcm3 Member

    Joined:
    Oct 24, 2015
    Messages:
    156
    Likes Received:
    4
    Thanks!
     
  12. lucasgsq

    lucasgsq New Member

    Joined:
    Dec 23, 2017
    Messages:
    28
    Likes Received:
    0
    thanksssssssss
     
  13. isham023

    isham023 Well-Known Member

    Joined:
    Nov 30, 2013
    Messages:
    2,695
    Likes Received:
    99
  14. Fabien Fournier

    Fabien Fournier Active Member

    Joined:
    Nov 14, 2013
    Messages:
    673
    Likes Received:
    80
    Thanks
     
  15. carlos69

    carlos69 Well-Known Member

    Joined:
    Dec 17, 2013
    Messages:
    1,357
    Likes Received:
    109
    Thanks
     
  16. Crazy1337

    Crazy1337 Member

    Joined:
    Jan 16, 2017
    Messages:
    83
    Likes Received:
    5
    thanks
     
  17. matti_9876

    matti_9876 Member

    Joined:
    Aug 13, 2017
    Messages:
    70
    Likes Received:
    0
  18. aria99

    aria99 Active Member

    Joined:
    Jun 3, 2015
    Messages:
    590
    Likes Received:
    102
    thanks
     
  19. Madafaka

    Madafaka Active Member

    Joined:
    Feb 23, 2018
    Messages:
    127
    Likes Received:
    39
  20. Nikkev

    Nikkev Member

    Joined:
    Feb 26, 2015
    Messages:
    277
    Likes Received:
    0
    thank u