Ariana Grande - Wins Choice Female Artist - The 2014 Teen Choice Awards 720p HDTV MPEG2 AC3-HDWTV

Discussion in 'Interviews / TV shows / Others' started by Darkangel, Aug 12, 2014.

  1. Darkangel

    Darkangel Super Moderator Staff Member Super Moderator Capper V . I . P.

    Joined:
    Oct 7, 2013
    Messages:
    2,889
    Likes Received:
    30,235
    Requested by Ankell

    [​IMG]
    Code:
    Complete name  : Ariana Grande - Wins Choice Female Artist - The 2014 Teen Choice Awards 720p HDTV MPEG2 AC3-HDWTV.ts
    Format  : MPEG-TS
    File size  : 180 MiB
    Duration  : 1mn 44s
    Overall bit rate mode  : Variable
    Overall bit rate  : 14.4 Mbps
    Law rating  : TV-PG (LV)
    
    Video
    ID  : 624 (0x270)
    Menu ID  : 1 (0x1)
    Format  : MPEG Video
    Commercial name  : HDV 720p
    Format version  : Version 2
    Format profile  : Main@High 1440
    Format settings, BVOP  : No
    Format settings, Matrix  : Default
    Format settings, GOP  : M=3, N=15
    Codec ID  : 2
    Duration  : 1mn 44s
    Bit rate mode  : Variable
    Bit rate  : 13.0 Mbps
    Maximum bit rate  : 15.0 Mbps
    Width  : 1 280 pixels
    Height  : 720 pixels
    Display aspect ratio  : 16:9
    Frame rate  : 59.940 fps
    Color space  : YUV
    Chroma subsampling  : 4:2:0
    Bit depth  : 8 bits
    Scan type  : Progressive
    Compression mode  : Lossy
    Bits/(Pixel*Frame)  : 0.236
    Time code of first frame  : 00:00:00:00
    Time code source  : Group of pictures header
    Stream size  : 163 MiB (91%)
    
    Audio #1
    ID  : 622 (0x26E)
    Menu ID  : 1 (0x1)
    Format  : AC-3
    Format/Info  : Audio Coding 3
    Mode extension  : CM (complete main)
    Format settings, Endianness  : Big
    Codec ID  : 129
    Duration  : 1mn 44s
    Bit rate mode  : Constant
    Bit rate  : 448 Kbps
    Channel(s)  : 6 channels
    Channel positions  : Front: L C R, Side: L R, LFE
    Sampling rate  : 48.0 KHz
    Bit depth  : 16 bits
    Compression mode  : Lossy
    Delay relative to video  : -12ms
    Stream size  : 5.60 MiB (3%)
    Language  : English
    
    Audio #2
    ID  : 623 (0x26F)
    Menu ID  : 1 (0x1)
    Format  : AC-3
    Format/Info  : Audio Coding 3
    Mode extension  : CM (complete main)
    Format settings, Endianness  : Big
    Codec ID  : 129
    Duration  : 1mn 44s
    Bit rate mode  : Constant
    Bit rate  : 192 Kbps
    Channel(s)  : 2 channels
    Channel positions  : Front: L R
    Sampling rate  : 48.0 KHz
    Bit depth  : 16 bits
    Compression mode  : Lossy
    Delay relative to video  : -21ms
    Stream size  : 2.40 MiB (1%)
    Language  : Spanish
    
    Text #1
    ID  : 624 (0x270)-CC1
    Menu ID  : 1 (0x1)
    Format  : EIA-608
    Muxing mode  : A/53 / DTVCC Transport
    Muxing mode, more info  : Muxed in Video #1
    Duration  : 1mn 44s
    Bit rate mode  : Constant
    Stream size  : 0.00 Byte (0%)
    
    Text #2
    ID  : 624 (0x270)-1
    Menu ID  : 1 (0x1)
    Format  : EIA-708
    Muxing mode  : A/53 / DTVCC Transport
    Muxing mode, more info  : Muxed in Video #1
    Duration  : 1mn 44s
    Bit rate mode  : Constant
    Stream size  : 0.00 Byte (0%)
    Hidden Content:
    You must either reply or click 'Like' to see the hidden information contained here.
     
    Last edited: Sep 2, 2014
  2. Loading...


  3. Ank-hell

    Ank-hell nɪhɪl V . I . P.

    Joined:
    Dec 21, 2013
    Messages:
    1,491
    Likes Received:
    8,408
    Thanks
     
  4. Kaiquegpp

    Kaiquegpp Member

    Joined:
    Jul 7, 2014
    Messages:
    381
    Likes Received:
    18
  5. alex

    alex Well-Known Member

    Joined:
    Nov 21, 2013
    Messages:
    4,632
    Likes Received:
    466
  6. santa321

    santa321 Well-Known Member

    Joined:
    Dec 7, 2013
    Messages:
    2,054
    Likes Received:
    103
  7. rhea

    rhea Well-Known Member

    Joined:
    Jan 6, 2014
    Messages:
    11,453
    Likes Received:
    2,198
    dead :(

    re-up plz
     
  8. Darkangel

    Darkangel Super Moderator Staff Member Super Moderator Capper V . I . P.

    Joined:
    Oct 7, 2013
    Messages:
    2,889
    Likes Received:
    30,235
    new link added :)
     
  9. edgar

    edgar Well-Known Member V . I . P.

    Joined:
    Oct 12, 2013
    Messages:
    3,007
    Likes Received:
    3,241
    Thank you so Much!:love::love::love:
     
  10. tetard

    tetard Well-Known Member V . I . P.

    Joined:
    Mar 29, 2014
    Messages:
    4,683
    Likes Received:
    6,812
    Thank you
     
  11. sweetener

    sweetener Member

    Joined:
    Jun 24, 2019
    Messages:
    183
    Likes Received:
    7
    thank you
     
  12. Jenkins

    Jenkins Well-Known Member

    Joined:
    May 30, 2019
    Messages:
    24,692
    Likes Received:
    714
    THANKS
     
  13. vanslavich

    vanslavich Active Member

    Joined:
    Dec 11, 2020
    Messages:
    509
    Likes Received:
    152