WEB-RiP Ariana Grande - Sweetener World Tour (Coachella 2019) 1080p

Discussion in 'HD Live Performances' started by RFL, Apr 15, 2019 at 3:30 AM.

  1. RFL

    RFL Well-Known Member

    Joined:
    Sep 21, 2014
    Messages:
    328
    Likes Received:
    383
    [​IMG]


    General
    Format profile : Base Media
    Codec ID : isom (isom/iso2/avc1/mp41)
    File size : 1.64 GiB
    Duration : 1 h 25 min
    Overall bit rate mode : Variable
    Overall bit rate : 2 726 kb/s
    Writing application : Lavf58.20.100

    Video
    ID : 1
    Format : AVC
    Format/Info : Advanced Video Codec
    Format profile : High@L4
    Format settings : CABAC / 1 Ref Frames
    Format settings, CABAC : Yes
    Format settings, ReFrames : 1 frame
    Codec ID : avc1
    Codec ID/Info : Advanced Video Coding
    Duration : 1 h 25 min
    Bit rate : 2 588 kb/s
    Width : 1 920 pixels
    Height : 1 080 pixels
    Display aspect ratio : 16:9
    Frame rate mode : Variable
    Frame rate : 30.000 FPS
    Minimum frame rate : 29.674 FPS
    Maximum frame rate : 30.303 FPS
    Color space : YUV
    Chroma subsampling : 4:2:0
    Bit depth : 8 bits
    Scan type : Progressive
    Bits/(Pixel*Frame) : 0.042
    Stream size : 1.55 GiB (95%)
    Color range : Limited
    Color primaries : BT.709
    Transfer characteristics : BT.709
    Matrix coefficients : BT.709
    Codec configuration box : avcC

    Audio
    ID : 2
    Format : AAC LC
    Format/Info : Advanced Audio Codec Low Complexity
    Codec ID : mp4a-40-2
    Duration : 1 h 25 min
    Bit rate mode : Variable
    Bit rate : 125 kb/s
    Maximum bit rate : 128 kb/s
    Channel(s) : 2 channels
    Channel layout : L R
    Sampling rate : 48.0 kHz
    Frame rate : 46.875 FPS (1024 SPF)
    Compression mode : Lossy
    Stream size : 77.0 MiB (5%)
    Default : Yes
    Alternate group : 1

    Download - New links
    Hidden Content:
    You must reply before you can see the hidden data contained here.

    All links are up! Enjoy!
     
    machart, eks22, upgrade-u and 78 others like this.
  2. Loading...


  3. suwatchkun

    suwatchkun Active Member

    Joined:
    Dec 22, 2015
    Messages:
    204
    Likes Received:
    110
    THANK U, NEXT
     
    Effbob likes this.
  4. jamiecotterill

    jamiecotterill Member

    Joined:
    Jul 7, 2018
    Messages:
    56
    Likes Received:
    6
  5. jaz12345

    jaz12345 Member

    Joined:
    Apr 9, 2017
    Messages:
    238
    Likes Received:
    15
  6. Harlow

    Harlow Active Member

    Joined:
    Dec 18, 2015
    Messages:
    500
    Likes Received:
    40
  7. Mozzie

    Mozzie Active Member

    Joined:
    Nov 6, 2017
    Messages:
    286
    Likes Received:
    35
  8. kachayeh

    kachayeh New Member

    Joined:
    Jul 28, 2017
    Messages:
    18
    Likes Received:
    1
  9. Camila

    Camila New Member

    Joined:
    Feb 21, 2019
    Messages:
    23
    Likes Received:
    0
    tyyyyyyyyyy
     
  10. Nikkev

    Nikkev Member

    Joined:
    Feb 26, 2015
    Messages:
    277
    Likes Received:
    0
  11. syndrome

    syndrome Member

    Joined:
    Mar 1, 2016
    Messages:
    47
    Likes Received:
    30
  12. AsyrafGrande

    AsyrafGrande Active Member

    Joined:
    May 25, 2015
    Messages:
    524
    Likes Received:
    64
  13. LGLOVER2013

    LGLOVER2013 Member

    Joined:
    Dec 21, 2017
    Messages:
    177
    Likes Received:
    15
  14. taram326

    taram326 Member

    Joined:
    Sep 21, 2014
    Messages:
    188
    Likes Received:
    19
    Thank you next
     
  15. frostyheaven

    frostyheaven Member

    Joined:
    Jun 17, 2016
    Messages:
    195
    Likes Received:
    12
  16. johnnosolo

    johnnosolo Member

    Joined:
    Dec 18, 2015
    Messages:
    779
    Likes Received:
    22
  17. kurxkw

    kurxkw New Member

    Joined:
    Aug 24, 2017
    Messages:
    20
    Likes Received:
    4
  18. johnsonnguyeen

    johnsonnguyeen Member

    Joined:
    Jul 13, 2017
    Messages:
    64
    Likes Received:
    2
  19. Luca Chiesa

    Luca Chiesa Member

    Joined:
    Dec 5, 2016
    Messages:
    82
    Likes Received:
    4
    Thanksssssssssss
     
  20. sharesharemainaa

    sharesharemainaa New Member

    Joined:
    Apr 25, 2018
    Messages:
    20
    Likes Received:
    0
  21. seriouslysir

    seriouslysir Member

    Joined:
    Apr 16, 2017
    Messages:
    126
    Likes Received:
    13