Ariana Grande - Problem ft. Iggy Azalea (AVC-AAC-1080p)

Discussion in 'SD Live Performances' started by Ransel, May 30, 2014.

  1. Ransel

    Ransel Founder Staff Member AdMiN Uploader

    Joined:
    Oct 1, 2013
    Messages:
    1,314
    Likes Received:
    19,222
    [​IMG]


    General
    Complete name : Ariana Grande - Problem ft. Iggy Azalea.mp4
    Format : MPEG-4
    Format profile : Base Media
    Codec ID : isom
    File size : 82.2 MiB
    Duration : AVC3mn 27s
    Overall bit rate : 3 327 Kbps
    Writing application : Lavf54.29.104

    Video
    ID : 1
    Format : AVC
    Format/Info : Advanced Video Codec
    Format profile : High@L4.0
    Format settings, CABAC : Yes
    Format settings, ReFrames : 2 frames
    Codec ID : avc1
    Codec ID/Info : Advanced Video Coding
    Duration : 3mn 27s
    Bit rate : 3 195 Kbps
    Width : 1 920 pixels
    Height : 1 080 pixels
    Display aspect ratio : 16:9
    Frame rate mode : Variable
    Frame rate : 23.976 fps
    Minimum frame rate : 23.974 fps
    Maximum frame rate : 23.981 fps
    Color space : YUV
    Chroma subsampling : 4:2:0
    Bit depth : 8 bits
    Scan type : Progressive
    Bits/(Pixel*Frame) : 0.064
    Stream size : 78.9 MiB (96%)

    Audio
    ID : 2
    Format : AAC
    Format/Info : Advanced Audio Codec
    Format profile : LC
    Codec ID : 40
    Duration : 3mn 27s
    Bit rate mode : Constant
    Bit rate : 126 Kbps
    Channel(s) : 2 channels
    Channel positions : Front: L R
    Sampling rate : 44.1 KHz
    Compression mode : Lossy
    Stream size : 3.10 MiB (4%)


    Download:
    Hidden Content:
    You must either reply or click 'Like' to see the hidden information contained here.


    Source: Youtube
     
    salinda, rcj, Snorom6 and 10 others like this.
  2. Loading...


  3. Ank-hell

    Ank-hell nɪhɪl V . I . P.

    Joined:
    Dec 21, 2013
    Messages:
    1,492
    Likes Received:
    6,827
    thks
     
    Bruno Coelho likes this.
  4. tetard

    tetard Well-Known Member V . I . P.

    Joined:
    Mar 29, 2014
    Messages:
    2,805
    Likes Received:
    4,772
    Thank you
     
  5. multimediafm

    multimediafm Well-Known Member Donor

    Joined:
    Mar 27, 2014
    Messages:
    13,842
    Likes Received:
    1,082
  6. Dyego Lucas de Oliveira

    Dyego Lucas de Oliveira Active Member

    Joined:
    Sep 10, 2014
    Messages:
    286
    Likes Received:
    26
    wow
     
  7. luco

    luco Active Member Capper

    Joined:
    Dec 6, 2013
    Messages:
    766
    Likes Received:
    73
    thanks.
     
  8. senorguti

    senorguti Member

    Joined:
    Jun 1, 2015
    Messages:
    242
    Likes Received:
    3
    thanks you
     
  9. finuj

    finuj Member

    Joined:
    Jul 19, 2016
    Messages:
    60
    Likes Received:
    2
    thanks you
     
  10. allynat

    allynat Active Member

    Joined:
    Dec 25, 2017
    Messages:
    946
    Likes Received:
    34
    thanks you
     
  11. chamorrex

    chamorrex Member

    Joined:
    Mar 12, 2017
    Messages:
    156
    Likes Received:
    2
    Gracias
     
  12. submariner9728

    submariner9728 Well-Known Member

    Joined:
    Dec 26, 2014
    Messages:
    1,246
    Likes Received:
    34
  13. pakkuen

    pakkuen Member

    Joined:
    Sep 27, 2018
    Messages:
    135
    Likes Received:
    3
    bfbfd