HDTV Ariana Grande - Problem & Break Free Radio 1's Teen Awards 2014 1080i

Discussion in 'HD Live Performances' started by Dfrazzer, Oct 19, 2014.

  1. Dfrazzer

    Dfrazzer Super Moderator Staff Member Super Moderator Capper V . I . P. Donor

    Joined:
    Nov 4, 2013
    Messages:
    6,353
    Likes Received:
    18,303
    [​IMG] [​IMG] [​IMG] [​IMG] [​IMG] [​IMG] [​IMG] [​IMG] [​IMG] [​IMG] [​IMG] [​IMG] [​IMG] [​IMG] [​IMG] [​IMG] [​IMG] [​IMG] [​IMG] [​IMG] [​IMG] [​IMG] [​IMG] [​IMG] [​IMG] [​IMG] [​IMG] [​IMG] [​IMG] [​IMG] [​IMG] [​IMG] [​IMG] [​IMG] [​IMG] [​IMG] [​IMG] [​IMG] [​IMG] [​IMG] [​IMG] [​IMG] [​IMG] [​IMG]

    Code:
    General
    ID : 1 (0x1)
    Complete name : C:\Users\Dfrazzer\Desktop\Ariana Grande - Problem & Break Free Radio 1's Teen Awards 2014.ts
    Format : MPEG-TS
    File size : 685 MiB
    Duration : 7mn 15s
    Overall bit rate mode : Variable
    Overall bit rate : 13.2 Mbps
    
    Video
    ID : 100 (0x64)
    Menu ID : 1 (0x1)
    Format : AVC
    Format/Info : Advanced Video Codec
    Format profile : High@L4.0
    Format settings, CABAC : Yes
    Format settings, ReFrames : 2 frames
    Codec ID : 27
    Duration : 7mn 15s
    Bit rate mode : Variable
    Bit rate : 11.9 Mbps
    Maximum bit rate : 24.0 Mbps
    Width : 1 920 pixels
    Height : 1 080 pixels
    Display aspect ratio : 16:9
    Frame rate : 25.000 fps
    Color space : YUV
    Chroma subsampling : 4:2:0
    Bit depth : 8 bits
    Scan type : Interlaced
    Scan order : Top Field First
    Bits/(Pixel*Frame) : 0.230
    Stream size : 617 MiB (90%)
    Color primaries : BT.709
    Transfer characteristics : BT.709
    Matrix coefficients : BT.709
    
    Audio #1
    ID : 101 (0x65)
    Menu ID : 1 (0x1)
    Format : AAC
    Format/Info : Advanced Audio Codec
    Format version : Version 4
    Format profile : LC
    Muxing mode : ADTS
    Codec ID : 15
    Duration : 7mn 14s
    Bit rate mode : Variable
    Bit rate : 220 Kbps
    Channel(s) : 2 channels
    Channel positions : Front: L R
    Sampling rate : 48.0 KHz
    Compression mode : Lossy
    Stream size : 11.4 MiB (2%)
    
    Audio #2
    ID : 103 (0x67)
    Menu ID : 1 (0x1)
    Format : AAC
    Format/Info : Advanced Audio Codec
    Format version : Version 4
    Format profile : LC
    Muxing mode : ADTS
    Codec ID : 15
    Duration : 7mn 14s
    Bit rate mode : Variable
    Bit rate : 220 Kbps
    Channel(s) : 2 channels
    Channel positions : Front: L R
    Sampling rate : 48.0 KHz
    Compression mode : Lossy
    Stream size : 11.4 MiB (2%)
    
    Audio #3
    ID : 105 (0x69)
    Menu ID : 1 (0x1)
    Format : AAC
    Format/Info : Advanced Audio Codec
    Format version : Version 4
    Format profile : LC
    Muxing mode : ADTS
    Codec ID : 15
    Duration : 7mn 14s
    Bit rate mode : Variable
    Bit rate : 220 Kbps
    Channel(s) : 2 channels
    Channel positions : Front: L R
    Sampling rate : 48.0 KHz
    Compression mode : Lossy
    Stream size : 11.4 MiB (2%)
    
    Hidden Content:
    You must reply before you can see the hidden data contained here.
    Capped by me.
     
    Last edited: Sep 15, 2015
  2. Loading...


  3. Carlos

    Carlos Well-Known Member

    Joined:
    May 4, 2014
    Messages:
    1,034
    Likes Received:
    125
    Thanks
     
  4. P1956

    P1956 Well-Known Member

    Joined:
    Aug 18, 2014
    Messages:
    1,397
    Likes Received:
    150
    thanks
     
  5. Ari10i

    Ari10i Active Member

    Joined:
    Oct 7, 2013
    Messages:
    96
    Likes Received:
    67
    Thanks
     
  6. edgar

    edgar Well-Known Member V . I . P.

    Joined:
    Oct 12, 2013
    Messages:
    3,008
    Likes Received:
    3,309
  7. HDMania

    HDMania Founder Staff Member AdMiN Uploader

    Joined:
    Oct 1, 2013
    Messages:
    1,388
    Likes Received:
    22,738
    Great, Thanks! :)
     
  8. nino.navy

    nino.navy Well-Known Member

    Joined:
    May 30, 2014
    Messages:
    4,853
    Likes Received:
    449
    thanks soooo much :D
     
  9. abcde54321

    abcde54321 Well-Known Member

    Joined:
    Apr 6, 2014
    Messages:
    1,424
    Likes Received:
    53
  10. BlueNature

    BlueNature Member

    Joined:
    Sep 28, 2014
    Messages:
    477
    Likes Received:
    13
    Thanks for sharing.
     
  11. brian182

    brian182 Well-Known Member

    Joined:
    Oct 14, 2013
    Messages:
    2,760
    Likes Received:
    187
    thanks!
     
  12. skimper

    skimper Active Member

    Joined:
    Oct 7, 2014
    Messages:
    786
    Likes Received:
    41
    THANKS
     
  13. santa321

    santa321 Well-Known Member

    Joined:
    Dec 7, 2013
    Messages:
    2,073
    Likes Received:
    104
  14. Angus

    Angus Well-Known Member

    Joined:
    Dec 18, 2013
    Messages:
    216
    Likes Received:
    361
    thanks
     
  15. opened

    opened Active Member Capper

    Joined:
    Dec 31, 2013
    Messages:
    393
    Likes Received:
    83
    Thank you for uploading.
     
  16. Ank-hell

    Ank-hell nɪhɪl V . I . P.

    Joined:
    Dec 21, 2013
    Messages:
    1,491
    Likes Received:
    8,538
    V Thanks
     
  17. rhea

    rhea Well-Known Member

    Joined:
    Jan 6, 2014
    Messages:
    11,547
    Likes Received:
    2,237
    thank you so much!
     
  18. Chris

    Chris Active Member

    Joined:
    Oct 19, 2013
    Messages:
    917
    Likes Received:
    32
    Thank you
     
  19. Rodrigo Izetti

    Rodrigo Izetti Well-Known Member

    Joined:
    Sep 22, 2014
    Messages:
    1,122
    Likes Received:
    78
  20. Rodrigo Izetti

    Rodrigo Izetti Well-Known Member

    Joined:
    Sep 22, 2014
    Messages:
    1,122
    Likes Received:
    78
  21. miguelmr87

    miguelmr87 Well-Known Member

    Joined:
    Dec 20, 2013
    Messages:
    3,621
    Likes Received:
    1,152
    thank for uploading