HDTV Ariana Grande - Problem & Break Free (Music Station,2014.09.12) 1080i

Discussion in 'HD Live Performances' started by weiweiliangyan, Sep 13, 2014.

  1. weiweiliangyan

    weiweiliangyan Well-Known Member V . I . P.

    Joined:
    Oct 3, 2013
    Messages:
    587
    Likes Received:
    9,559
    [​IMG]
    [​IMG]

    Code:
    Complete name                  : Ariana Grande - Problem & Break Free (Live @ Music Station,2014.09.12)[HDTV-1080i].ts
    Format                         : MPEG-TS
    File size                      : 363 MiB
    Duration                       : 3mn 14s
    Start time                     : UTC 2014-09-12 20:39:11
    End time                       : UTC 2014-09-12 20:42:21
    Overall bit rate mode          : Variable
    Overall bit rate               : 15.7 Mbps
    Network name                   : 4XEl9-0h5
    
    Video
    ID                             : 273 (0x111)
    Menu ID                        : 1064 (0x428)
    Format                         : MPEG Video
    Format version                 : Version 2
    Format profile                 : Main@High
    Format settings, BVOP          : Yes
    Format settings, Matrix        : Custom
    Format settings, GOP           : M=3, N=15
    Codec ID                       : 2
    Duration                       : 3mn 13s
    Bit rate mode                  : Variable
    Bit rate                       : 14.7 Mbps
    Maximum bit rate               : 20.0 Mbps
    Width                          : 1 440 pixels
    Height                         : 1 080 pixels
    Display aspect ratio           : 16:9
    Frame rate                     : 29.970 fps
    Color space                    : YUV
    Chroma subsampling             : 4:2:0
    Bit depth                      : 8 bits
    Scan type                      : Interlaced
    Scan order                     : Top Field First
    Compression mode               : Lossy
    Bits/(Pixel*Frame)             : 0.315
    Time code of first frame       : 16:04:21:24
    Time code source               : Group of pictures header
    Stream size                    : 339 MiB (93%)
    Color primaries                : BT.709
    Transfer characteristics       : BT.709
    Matrix coefficients            : BT.709
    
    Audio
    ID                             : 274 (0x112)
    Menu ID                        : 1064 (0x428)
    Format                         : AAC
    Format/Info                    : Advanced Audio Codec
    Format version                 : Version 2
    Format profile                 : LC
    Muxing mode                    : ADTS
    Codec ID                       : 15
    Duration                       : 3mn 14s
    Bit rate mode                  : Variable
    Bit rate                       : 219 Kbps
    Channel(s)                     : 2 channels
    Channel positions              : Front: L R
    Sampling rate                  : 48.0 KHz
    Compression mode               : Lossy
    Delay relative to video        : -280ms
    Stream size                    : 5.06 MiB (1%)

    Credit to the Capper: 大水怪(wangchen)
    Hidden Content:
    You must reply before you can see the hidden data contained here.
     
  2. Loading...


  3. Deka

    Deka Member

    Joined:
    Jul 8, 2014
    Messages:
    299
    Likes Received:
    6
    thanks!
     
    bahare7373 likes this.
  4. alex

    alex Well-Known Member

    Joined:
    Nov 21, 2013
    Messages:
    4,633
    Likes Received:
    470
    Thanks:victory:
     
  5. Angel

    Angel J.LO & Beyoncé Fan Staff Member Super Moderator Capper V . I . P.

    Joined:
    Jan 31, 2014
    Messages:
    2,004
    Likes Received:
    13,914
    Thanks
     
    alex likes this.
  6. P1956

    P1956 Well-Known Member

    Joined:
    Aug 18, 2014
    Messages:
    1,397
    Likes Received:
    150
    thanks
     
  7. Antonio Barros

    Antonio Barros Well-Known Member

    Joined:
    Nov 14, 2013
    Messages:
    1,963
    Likes Received:
    475
    thank you!!!!
     
  8. Wroggy

    Wroggy Member

    Joined:
    May 19, 2014
    Messages:
    265
    Likes Received:
    13
    Thanks a lot!
     
  9. Marko11

    Marko11 Member

    Joined:
    Dec 28, 2013
    Messages:
    140
    Likes Received:
    4
    thanks
     
  10. jenjer123

    jenjer123 Member

    Joined:
    Jan 2, 2014
    Messages:
    406
    Likes Received:
    17
  11. gh-sean

    gh-sean Member

    Joined:
    Mar 26, 2014
    Messages:
    294
    Likes Received:
    11
    thanks
     
  12. Brian

    Brian Well-Known Member Capper V . I . P.

    Joined:
    Nov 1, 2013
    Messages:
    145
    Likes Received:
    876
    Thanks
     
  13. Ari10i

    Ari10i Active Member

    Joined:
    Oct 7, 2013
    Messages:
    96
    Likes Received:
    67
    Gracias!
     
  14. mg2244

    mg2244 Active Member

    Joined:
    Aug 12, 2014
    Messages:
    462
    Likes Received:
    55
    Thanks
     
  15. alex

    alex Well-Known Member

    Joined:
    Nov 21, 2013
    Messages:
    4,633
    Likes Received:
    470
    anybody can upload this on mega or firedrive ? thanks
     
    Angel likes this.
  16. abcde54321

    abcde54321 Well-Known Member

    Joined:
    Apr 6, 2014
    Messages:
    1,424
    Likes Received:
    53
  17. santa321

    santa321 Well-Known Member

    Joined:
    Dec 7, 2013
    Messages:
    2,073
    Likes Received:
    104
  18. Thassyo

    Thassyo Well-Known Member

    Joined:
    Oct 9, 2013
    Messages:
    3,408
    Likes Received:
    1,607
    thanks
     
  19. rhea

    rhea Well-Known Member

    Joined:
    Jan 6, 2014
    Messages:
    11,547
    Likes Received:
    2,237
    thank you so much :)
     
  20. Jeremy017

    Jeremy017 Member

    Joined:
    Sep 5, 2014
    Messages:
    186
    Likes Received:
    0
    THX FOR sharing
     
  21. Ank-hell

    Ank-hell nɪhɪl V . I . P.

    Joined:
    Dec 21, 2013
    Messages:
    1,491
    Likes Received:
    8,538