HDTV Ariana Grande - Problem,Bang Bang,Break Free & Drawing Backstage Radio 1's Teen Awards 2014 1080i

Discussion in 'HD Live Performances' started by Dfrazzer, Oct 22, 2014.

  1. TzoyBe

    TzoyBe Member

    Joined:
    Nov 24, 2015
    Messages:
    227
    Likes Received:
    9
    thxxxxxx
     
  2. laboyz

    laboyz Member

    Joined:
    Aug 23, 2016
    Messages:
    181
    Likes Received:
    6
    thank you so much!
     
  3. nowapperance

    nowapperance Member

    Joined:
    Jun 24, 2017
    Messages:
    47
    Likes Received:
    0
  4. okay1234

    okay1234 Member

    Joined:
    Sep 7, 2016
    Messages:
    192
    Likes Received:
    9
    thankss
     
  5. aj8cd2bl9f2af9k2ncsm

    aj8cd2bl9f2af9k2ncsm New Member

    Joined:
    Aug 29, 2017
    Messages:
    12
    Likes Received:
    0
  6. Hosseinww

    Hosseinww Member

    Joined:
    Dec 18, 2014
    Messages:
    193
    Likes Received:
    3
  7. GuruPitka

    GuruPitka Member

    Joined:
    Apr 3, 2014
    Messages:
    401
    Likes Received:
    10
  8. Luanreaal

    Luanreaal Member

    Joined:
    Sep 19, 2017
    Messages:
    92
    Likes Received:
    1
    ARIANAAAAAAAAAAAAAAAA
     
  9. orgulo

    orgulo Active Member

    Joined:
    Jan 16, 2017
    Messages:
    958
    Likes Received:
    46
    thanks
     
  10. Amauri Luiz

    Amauri Luiz Well-Known Member

    Joined:
    Jan 14, 2014
    Messages:
    1,706
    Likes Received:
    63
  11. mariahpam

    mariahpam Member

    Joined:
    Dec 3, 2017
    Messages:
    252
    Likes Received:
    9
    yassss
    [​IMG] [​IMG]

    Code:
    General
    ID : 1 (0x1)
    Complete name : C:\Users\Dfrazzer\Desktop\Ariana Grande - Problem ,Bang Bang ,Break Free & Drawing Backstage Radio 1's Teen Awards 2014 1080i.ts
    Format : MPEG-TS
    File size : 1.44 GiB
    Duration : 15mn 37s
    Overall bit rate mode : Variable
    Overall bit rate : 13.2 Mbps
    
    Video
    ID : 100 (0x64)
    Menu ID : 1 (0x1)
    Format : AVC
    Format/Info : Advanced Video Codec
    Format profile : High@L4.0
    Format settings, CABAC : Yes
    Format settings, ReFrames : 2 frames
    Codec ID : 27
    Duration : 15mn 37s
    Bit rate mode : Variable
    Bit rate : 11.9 Mbps
    Maximum bit rate : 24.0 Mbps
    Width : 1 920 pixels
    Height : 1 080 pixels
    Display aspect ratio : 16:9
    Frame rate : 25.000 fps
    Color space : YUV
    Chroma subsampling : 4:2:0
    Bit depth : 8 bits
    Scan type : Interlaced
    Scan order : Top Field First
    Bits/(Pixel*Frame) : 0.229
    Stream size : 1.30 GiB (90%)
    Color primaries : BT.709
    Transfer characteristics : BT.709
    Matrix coefficients : BT.709
    
    Audio #1
    ID : 101 (0x65)
    Menu ID : 1 (0x1)
    Format : AAC
    Format/Info : Advanced Audio Codec
    Format version : Version 4
    Format profile : LC
    Muxing mode : ADTS
    Codec ID : 15
    Duration : 15mn 37s
    Bit rate mode : Variable
    Bit rate : 220 Kbps
    Channel(s) : 2 channels
    Channel positions : Front: L R
    Sampling rate : 48.0 KHz
    Compression mode : Lossy
    Stream size : 24.6 MiB (2%)
    
    Audio #2
    ID : 103 (0x67)
    Menu ID : 1 (0x1)
    Format : AAC
    Format/Info : Advanced Audio Codec
    Format version : Version 4
    Format profile : LC
    Muxing mode : ADTS
    Codec ID : 15
    Duration : 15mn 37s
    Bit rate mode : Variable
    Bit rate : 220 Kbps
    Channel(s) : 2 channels
    Channel positions : Front: L R
    Sampling rate : 48.0 KHz
    Compression mode : Lossy
    Stream size : 24.6 MiB (2%)
    
    Audio #3
    ID : 105 (0x69)
    Menu ID : 1 (0x1)
    Format : AAC
    Format/Info : Advanced Audio Codec
    Format version : Version 4
    Format profile : LC
    Muxing mode : ADTS
    Codec ID : 15
    Duration : 15mn 37s
    Bit rate mode : Variable
    Bit rate : 220 Kbps
    Channel(s) : 2 channels
    Channel positions : Front: L R
    Sampling rate : 48.0 KHz
    Compression mode : Lossy
    Stream size : 24.6 MiB (2%)
    
    ***Hidden content cannot be quoted.***

    Capped by me.[/QUOTE]
     
  12. iametor

    iametor Member

    Joined:
    Oct 15, 2014
    Messages:
    94
    Likes Received:
    1
    Amazing! thank u!
     
  13. selenagomez23

    selenagomez23 Member

    Joined:
    Aug 20, 2016
    Messages:
    232
    Likes Received:
    4
  14. catiefields98

    catiefields98 Member

    Joined:
    Jan 11, 2018
    Messages:
    49
    Likes Received:
    0
    Hell yeah, thanks dude!
     
  15. Bouncer

    Bouncer Member

    Joined:
    Jan 5, 2016
    Messages:
    523
    Likes Received:
    13
    tks tks
     
  16. celshare

    celshare Well-Known Member

    Joined:
    Aug 11, 2014
    Messages:
    225
    Likes Received:
    606
    Thanks.
     
  17. Lofox

    Lofox Member

    Joined:
    Nov 9, 2013
    Messages:
    50
    Likes Received:
    0
    Thanks
     
  18. Madafaka

    Madafaka Member

    Joined:
    Feb 23, 2018
    Messages:
    67
    Likes Received:
    0
  19. uminomiyako

    uminomiyako Well-Known Member

    Joined:
    May 28, 2016
    Messages:
    2,122
    Likes Received:
    85
  20. linkin2010

    linkin2010 Well-Known Member

    Joined:
    Oct 7, 2013
    Messages:
    160
    Likes Received:
    1,713
    Thank you!