Ariana Grande - Loose Women 9th October 2014 1080i

Discussion in 'Interviews / TV shows / Others' started by Dfrazzer, Oct 13, 2014.

  1. Dfrazzer

    Dfrazzer Super Moderator Staff Member Super Moderator Capper V . I . P. Donor

    Joined:
    Nov 4, 2013
    Messages:
    6,353
    Likes Received:
    18,303
    Requested by: Me and Ankell

    [​IMG] [​IMG] [​IMG] [​IMG] [​IMG] [​IMG] [​IMG] [​IMG] [​IMG] [​IMG] [​IMG] [​IMG] [​IMG] [​IMG] [​IMG] [​IMG] [​IMG] [​IMG] [​IMG] [​IMG] [​IMG] [​IMG] [​IMG] [​IMG] [​IMG] [​IMG] [​IMG] [​IMG] [​IMG] [​IMG]

    Code:
    General
    ID : 1 (0x1)
    Complete name : C:\Users\Dfrazzer\Desktop\Ariana Grande - Loose Women 9th October 2014 1080i HDMania.ts
    Format : MPEG-TS
    File size : 1.28 GiB
    Duration : 13mn 59s
    Overall bit rate mode : Variable
    Overall bit rate : 13.1 Mbps
    
    Video
    ID : 100 (0x64)
    Menu ID : 1 (0x1)
    Format : AVC
    Format/Info : Advanced Video Codec
    Format profile : High@L4.0
    Format settings, CABAC : Yes
    Format settings, ReFrames : 2 frames
    Codec ID : 27
    Duration : 13mn 59s
    Bit rate mode : Variable
    Bit rate : 11.8 Mbps
    Maximum bit rate : 24.0 Mbps
    Width : 1 920 pixels
    Height : 1 080 pixels
    Display aspect ratio : 16:9
    Frame rate : 25.000 fps
    Color space : YUV
    Chroma subsampling : 4:2:0
    Bit depth : 8 bits
    Scan type : Interlaced
    Scan order : Top Field First
    Bits/(Pixel*Frame) : 0.227
    Stream size : 1.15 GiB (90%)
    Color primaries : BT.709
    Transfer characteristics : BT.709
    Matrix coefficients : BT.709
    
    Audio #1
    ID : 101 (0x65)
    Menu ID : 1 (0x1)
    Format : AAC
    Format/Info : Advanced Audio Codec
    Format version : Version 4
    Format profile : LC
    Muxing mode : ADTS
    Codec ID : 15
    Duration : 13mn 58s
    Bit rate mode : Variable
    Bit rate : 220 Kbps
    Channel(s) : 2 channels
    Channel positions : Front: L R
    Sampling rate : 48.0 KHz
    Compression mode : Lossy
    Stream size : 22.0 MiB (2%)
    
    Audio #2
    ID : 103 (0x67)
    Menu ID : 1 (0x1)
    Format : AAC
    Format/Info : Advanced Audio Codec
    Format version : Version 4
    Format profile : LC
    Muxing mode : ADTS
    Codec ID : 15
    Duration : 13mn 58s
    Bit rate mode : Variable
    Bit rate : 220 Kbps
    Channel(s) : 2 channels
    Channel positions : Front: L R
    Sampling rate : 48.0 KHz
    Compression mode : Lossy
    Stream size : 22.0 MiB (2%)
    
    Audio #3
    ID : 105 (0x69)
    Menu ID : 1 (0x1)
    Format : AAC
    Format/Info : Advanced Audio Codec
    Format version : Version 4
    Format profile : LC
    Muxing mode : ADTS
    Codec ID : 15
    Duration : 13mn 58s
    Bit rate mode : Variable
    Bit rate : 220 Kbps
    Channel(s) : 2 channels
    Channel positions : Front: L R
    Sampling rate : 48.0 KHz
    Compression mode : Lossy
    Stream size : 22.0 MiB (2%)
    
    Hidden Content:
    You must reply before you can see the hidden data contained here.
    Capped by me.
     
    Last edited: Apr 29, 2019
  2. Loading...


  3. Brian

    Brian Well-Known Member Capper V . I . P.

    Joined:
    Nov 1, 2013
    Messages:
    145
    Likes Received:
    876
    "Sorry, Uptobox.com is not available in your country"

    Location: United States

    Would appreciate a re-upload to mega, thanks.
     
    HDMania likes this.
  4. Angel

    Angel J.LO & Beyoncé Fan Staff Member Super Moderator Capper V . I . P.

    Joined:
    Jan 31, 2014
    Messages:
    2,004
    Likes Received:
    13,914
    mega plz
     
    HDMania likes this.
  5. Ank-hell

    Ank-hell nɪhɪl V . I . P.

    Joined:
    Dec 21, 2013
    Messages:
    1,491
    Likes Received:
    8,538
    Thkssss:super::super::super::super:
     
  6. Ari10i

    Ari10i Active Member

    Joined:
    Oct 7, 2013
    Messages:
    96
    Likes Received:
    67
    Amazing, thanks!
     
  7. Angel

    Angel J.LO & Beyoncé Fan Staff Member Super Moderator Capper V . I . P.

    Joined:
    Jan 31, 2014
    Messages:
    2,004
    Likes Received:
    13,914
    Here's a mega link

    Hidden Content:
    You must reply before you can see the hidden data contained here.
     
    rhea, alex, Brian and 1 other person like this.
  8. Ari10i

    Ari10i Active Member

    Joined:
    Oct 7, 2013
    Messages:
    96
    Likes Received:
    67
    Obrigado! +1
     
    arianaloven likes this.
  9. Dfrazzer

    Dfrazzer Super Moderator Staff Member Super Moderator Capper V . I . P. Donor

    Joined:
    Nov 4, 2013
    Messages:
    6,353
    Likes Received:
    18,303
    Thanks for adding the Mega.co.nz link I've not been able to get an upload to get past 51% in days.
     
  10. pinkbecca

    pinkbecca Member Donor

    Joined:
    Apr 24, 2014
    Messages:
    211
    Likes Received:
    3
  11. nino.navy

    nino.navy Well-Known Member

    Joined:
    May 30, 2014
    Messages:
    4,853
    Likes Received:
    449
    thanks sooo much
     
  12. alex

    alex Well-Known Member

    Joined:
    Nov 21, 2013
    Messages:
    4,633
    Likes Received:
    470
    Thanks:victory:
     
  13. opened

    opened Active Member Capper

    Joined:
    Dec 31, 2013
    Messages:
    393
    Likes Received:
    83
  14. jack_black

    jack_black Well-Known Member

    Joined:
    Feb 16, 2014
    Messages:
    1,289
    Likes Received:
    1,098
  15. rhea

    rhea Well-Known Member

    Joined:
    Jan 6, 2014
    Messages:
    11,547
    Likes Received:
    2,237
    thank you
     
  16. kaijoo

    kaijoo Member

    Joined:
    Apr 7, 2014
    Messages:
    556
    Likes Received:
    12
    thanks
     
  17. luco

    luco Active Member Capper

    Joined:
    Dec 6, 2013
    Messages:
    766
    Likes Received:
    77
    thanks
     
  18. Winged

    Winged Active Member

    Joined:
    Sep 19, 2014
    Messages:
    702
    Likes Received:
    81
    Thanks!
     
  19. xcxshunfeng

    xcxshunfeng Active Member

    Joined:
    Aug 31, 2014
    Messages:
    411
    Likes Received:
    45
    nice
     
    arianaloven likes this.
  20. gunitg89

    gunitg89 Member

    Joined:
    Oct 25, 2014
    Messages:
    96
    Likes Received:
    1
    thank you nice
     
  21. Dfrazzer

    Dfrazzer Super Moderator Staff Member Super Moderator Capper V . I . P. Donor

    Joined:
    Nov 4, 2013
    Messages:
    6,353
    Likes Received:
    18,303
    Added a Google Drive link to original post.